[bittorrent] Tyler Neel Band Nik's Place Marietta, Georgia 1/2/2017 (Schoeps CCM4V'S FOB)

Automated Mailer noreply-bt.e at etree.org
Tue Jan 3 13:32:22 UTC 2017


Band:           Other
Torrent Name:   Tyler Neel Band Nik's Place Marietta, Georgia 1/2/2017 (Schoeps CCM4V'S FOB)
Uploaded by:    zmanatl
DB Link:        
Details:        http://bt.etree.org/details.php?id=590652

Contact the seeder at http://db.etree.org/zmanatl

If the link to this show does not work, it was probably removed for
being non-trade-friendly.

Description / text file:
-------------------------
Tyler Neel Band
Nik's Place
Marietta, Georgia
1/2/2017

Source: Schoeps CCM4V's>Lunatec V2>Benchmark AD2K>
Sound Devices 722 (24/44)
FOB/DFC/KFC/ZFC/AARP 4' From Stage, 6' High
DSP: Sound Devices 722>Sound Forge 10.0>CD Wave>flac(16)
ID3 Tagged In Foobar 2000
Recorded By: Z-Man
Seeded By: Z-Man

Disc I 

01 Stormy Monday
02 People Say 
03 *There Was A Time
04 *These Arms Of Mine
05 *Let The Good Times Roll
06 *Cold Sweat 

Disc II 

01 *Don't Let The Devil Ride 
02 *#Done Somebody Wrong
03 *#I Would Rather Go Blind >
04 *#Hey Pockey Way
05 *#Let's Go Get Stoned

* With Caleb Tokarska On Guitar
# With Jackson Allen On Harmonica

Tyler Neal - Guitar And Vocals
Brandon Boone - Bass And Vocals
Adam Holiday - Keyboards
Jody White - Drums

tylerneel2017-01-02d01t01.flac:961276c9503fde22d235cff61a6d2bf4
tylerneel2017-01-02d01t02.flac:de57798f9e58971fb8c1093a95bf2ea7
tylerneel2017-01-02d01t03.flac:2776c51b09d7ef064cb023ddb1a4de81
tylerneel2017-01-02d01t04.flac:a7058ea74644b018ba1995796b873a38
tylerneel2017-01-02d01t05.flac:9d7a99cd75e0b23c081b3c9035e19b1e
tylerneel2017-01-02d01t06.flac:eac4101ff72c644618dc5be04352f34d
tylerneel2017-01-02d02t01.flac:6724c352dec8c78e447aeeaba1000efc
tylerneel2017-01-02d02t02.flac:e8e252f153069ca87cfc4cb99aec7b85
tylerneel2017-01-02d02t03.flac:13ae3a7a47214868e282be27abf49a13
tylerneel2017-01-02d02t04.flac:5f3a462027437c3825f96e1ae5d20b77
tylerneel2017-01-02d02t05.flac:9d79305b36cacb349e1168d5e6b0b5e2

length     expanded size    cdr  WAVE problems  fmt   ratio  filename
     7:38.19       80835932 B   ---   --   ---xx   flac  0.4287  tylerneel2017-01-02d01t01.flac
     6:53.50       72970844 B   ---   --   ---xx   flac  0.4830  tylerneel2017-01-02d01t02.flac
     7:13.02       76385948 B   ---   --   ---xx   flac  0.5298  tylerneel2017-01-02d01t03.flac
     6:57.58       73695260 B   ---   --   ---xx   flac  0.4203  tylerneel2017-01-02d01t04.flac
     6:40.66       70715276 B   ---   --   ---xx   flac  0.5083  tylerneel2017-01-02d01t05.flac
    11:23.41      120577676 B   ---   --   ---xx   flac  0.4956  tylerneel2017-01-02d01t06.flac
     9:25.34       99746012 B   ---   --   ---xx   flac  0.4352  tylerneel2017-01-02d02t01.flac
     6:36.12       69882668 B   ---   --   ---xx   flac  0.4813  tylerneel2017-01-02d02t02.flac
     4:49.70       51144284 B   ---   --   ---xx   flac  0.3745  tylerneel2017-01-02d02t03.flac
     6:38.62       70353068 B   ---   --   ---xx   flac  0.4645  tylerneel2017-01-02d02t04.flac
     8:54.01       94199996 B   ---   --   ---xx   flac  0.4673  tylerneel2017-01-02d02t05.flac
    83:11.40      880506964 B                            0.4656  (11 files)

















More information about the bittorrent mailing list