[bittorrent] ph1992-05-01.neumann.dankseed.137491.shnf

Automated Mailer noreply-bt.e at etree.org
Tue Jan 3 13:16:26 UTC 2017


Band:           Phish
Torrent Name:   ph1992-05-01.neumann.dankseed.137491.shnf
Uploaded by:    mvernon
DB Link:        
Details:        http://bt.etree.org/details.php?id=590651

Contact the seeder at http://db.etree.org/mvernon

If the link to this show does not work, it was probably removed for
being non-trade-friendly.

Description / text file:
-------------------------
Phish 5-1-92
The Rave at Central Park - Milwaukee, WI

Source: DAUD, FOB, 20ft from stage, DFC
        Stand at 8ft height mic at 150 degrees
        Neumann RSM191A-S>Neumann MTX191A>Panasonic SV255(@48K)
        Taped by Kevin Shapiro, who provided the master
        DAT clones for the transfer

Transfer:Sony PCM-R300>Zoltrix Nightengale via optical cable>
        Sound Forge 4.5h(record, 48-44.1 with anti-alias @ highest
        setting)>CDWAV(tracking)>mkwACT(seek tables appended)
        **No DAE**  (48K archive SHNs also available)

Edits:
        1)Suzy Greenberg had diginoise at 05:47-05:48 - material for splices
        came from same song. All splices and patches performed in Sonic
        Foundry Vegas. No Eq/timestretching/mic modelling performed on
        main track.
        2)Tiny diginoise reduced as much as possible during Lawn Boy at
        01:33 using Sonic Foundry Click and Crackle Removal tool.
        3)Diginoise during GTBT at 04:27 removed using the pencil tool in
        Sound Forge
        Edits 1 and 3 by Eric Warren 
        Edit 2 by Brian Feller 
        All instances of diginoise present on master DAT

Transferred and seeded via Dankseeds by Brian Feller 

Disc 1	62:41

Set 1
01. Suzy Greenberg	06:06
02. My Friend My Friend	06:42
03. Poor Heart	03:01
04. The Landlady	03:30
05. NICU	05:41
06. The Sloth	03:48
07. The Divided Sky	13:33
08. Guelah Papyrus	06:11
09. It's Ice	10:21
10. Horn	03:45

Disc 2	73:33
01. I Didn't Know%	03:29
02. Possum*	12:34

Set 2
03. Sanity	05:38
04. Buried Alive	02:25
05. Wilson	05:19
06. All Things Reconsidered	03:10
07. My Sweet One	02:46
08. Mike's Song->	07:28
09. I Am Hydrogen->	03:28
10. Weekapaug Groove	06:46
11. Mound	05:49
12. Lizards	09:59
13. Llama	04:36

Disc 3	30:21
01. Cold as Ice Intro/Fishman Banter	01:54
02. Terrapin>Cold as Ice Outro	06:30
03. Golgi Apparatus	05:06
04. Crowd	01:32

Encore 1:
05. Lawn Boy	02:33
06. Good Times Bad Times	06:15
07. Crowd	02:05

Encore 2:
08. Rocky Top	03:50
09. Post show announcements	00:52

%Featuring "The Piper" (Fishman) on bagpipe horn solo

*with Language in intro(Aw Fuck!, All Fall Down)and Simpsons Language to end the song

Setlist from the Phish Companion 
with additions and comments by Brian Feller


- - - - additional comments by mvernon on 1/2/17 - - - -

shntool shows no sbe’s

    length     expanded size    cdr  WAVE problems  fmt   ratio  filename
     6:04.33       64287260 B   ---   --   ---xx    shn  0.5988  ph92-05-01d1t01.shn
     6:42.18       70955180 B   ---   --   ---xx    shn  0.6274  ph92-05-01d1t02.shn
     3:01.17       31968428 B   ---   --   ---xx    shn  0.5953  ph92-05-01d1t03.shn
     3:30.52       37166348 B   ---   --   ---xx    shn  0.6189  ph92-05-01d1t04.shn
     5:41.22       60204188 B   ---   --   ---xx    shn  0.6316  ph92-05-01d1t05.shn
     3:48.66       40374476 B   ---   --   ---xx    shn  0.6547  ph92-05-01d1t06.shn
    13:33.27      143476748 B   ---   --   ---xx    shn  0.5974  ph92-05-01d1t07.shn
     6:11.02       65449148 B   ---   --   ---xx    shn  0.6045  ph92-05-01d1t08.shn
    10:21.11      109570316 B   ---   --   ---xx    shn  0.6121  ph92-05-01d1t09.shn
     3:45.52       39812348 B   ---   --   ---xx    shn  0.6078  ph92-05-01d1t10.shn
     3:27.48       36627740 B   ---   --   ---xx    shn  0.5790  ph92-05-01d2t01.shn
    12:34.69      133167932 B   ---   --   ---xx    shn  0.6268  ph92-05-01d2t02.shn
     5:38.27       59686748 B   ---   --   ---xx    shn  0.5891  ph92-05-01d2t03.shn
     2:25.05       25589804 B   ---   --   ---xx    shn  0.6071  ph92-05-01d2t04.shn
     5:19.20       56318684 B   ---   --   ---xx    shn  0.5957  ph92-05-01d2t05.shn
     3:10.08       33534860 B   ---   --   ---xx    shn  0.5782  ph92-05-01d2t06.shn
     2:46.58       29418860 B   ---   --   ---xx    shn  0.5953  ph92-05-01d2t07.shn
     7:28.62       79173068 B   ---   --   ---xx    shn  0.6387  ph92-05-01d2t08.shn
     3:28.63       36839420 B   ---   --   ---xx    shn  0.5387  ph92-05-01d2t09.shn
     6:46.16       71656076 B   ---   --   ---xx    shn  0.6088  ph92-05-01d2t10.shn
     5:49.07       61580108 B   ---   --   ---xx    shn  0.5974  ph92-05-01d2t11.shn
     9:59.50      105781244 B   ---   --   ---xx    shn  0.5759  ph92-05-01d2t12.shn
     4:36.27       48749948 B   ---   --   ---xx    shn  0.6505  ph92-05-01d2t13.shn
     1:52.04       19766252 B   ---   --   ---xx    shn  0.5306  ph92-05-01d3t01.shn
     6:30.37       68883068 B   ---   --   ---xx    shn  0.5223  ph92-05-01d3t02.shn
     5:06.70       54143084 B   ---   --   ---xx    shn  0.6033  ph92-05-01d3t03.shn
     1:32.44       16332332 B   ---   --   ---xx    shn  0.5040  ph92-05-01d3t04.shn
     2:33.00       26989244 B   ---   --   ---xx    shn  0.4925  ph92-05-01d3t05.shn
     6:15.62       66295868 B   ---   --   ---xx    shn  0.6565  ph92-05-01d3t06.shn
     2:05.55       22179404 B   ---   --   ---xx    shn  0.5106  ph92-05-01d3t07.shn
     3:50.22       40623788 B   ---   --   ---xx    shn  0.5694  ph92-05-01d3t08.shn
     0:32.33        5722460 B   ---   --   ---xx    shn  0.5027  ph92-05-01d3t09.shn
   166:30.37     1762324432 B                            0.5997  (32 files)



More information about the bittorrent mailing list