[bittorrent] Phish 2016-12-29 Madison Square Garden New York, NY Schoeps mk22>nbob actives>Naiant PFAs>Sonosax SX-R4 **16bit**

Automated Mailer noreply-bt.e at etree.org
Tue Jan 3 04:42:51 UTC 2017


Band:           Phish
Torrent Name:   Phish 2016-12-29 Madison Square Garden New York, NY Schoeps mk22>nbob actives>Naiant PFAs>Sonosax SX-R4 **16bit**
Uploaded by:    andyjah
DB Link:        
Details:        http://bt.etree.org/details.php?id=590644

Contact the seeder at http://db.etree.org/andyjah

If the link to this show does not work, it was probably removed for
being non-trade-friendly.

Description / text file:
-------------------------
Phish
2016-12-29
Madison Square Garden
New York, NY

mics were NOS setup in the OTS to the right of the soundboard

Schoeps mk22>nbob actives>Naiant PFAs>Sonosax SX-R4 (24bit/96khz)

WAV>USB>MacBook Pro>Audacity(tracking,fades)>Sony Soundforge Convrt(resample(izotope,higher than highest settings)/dither(mbit+/ultra, high dither)to 16 bit/44.1k)>XAct(FLAC 8,ffp,fix sbe,tagging)

Recorded and transferred by Andy Murray

Set 1

Intro
Sweet Adeline
Peaches En Regalia >
Mike's Song >
Secret Smile >
Weekapaug Groove
Roses Are Free
Poor Heart
46 Days
Brian & Robert
Beauty Of A Broken Heart
Theme From The Bottom >
Split Open & Melt

Set 2

Intro
Down With Disease >
What's The Use? >
Fuego >
Meatstick
Twenty Years Later > Kung > Twenty Years Later >
Makisupa Policeman
Harry Hood
Encore Break 
Julius

;flac fingerprints generated by xACT 2.38 on 2017-01-03 04:33:54 +0000

ph2016-12-29.mk22.sxr4.1644.s1t01.flac:dec595c20d7db0e01322ab9dc58221e7
ph2016-12-29.mk22.sxr4.1644.s1t02.flac:93cdea39492c40751d0bcb5fb35bb915
ph2016-12-29.mk22.sxr4.1644.s1t03.flac:2f958756cdd8b17624cda46fad7b3ac2
ph2016-12-29.mk22.sxr4.1644.s1t04.flac:b5f31f760307bbab5e0d5dc55cea9508
ph2016-12-29.mk22.sxr4.1644.s1t05.flac:4ce0770d7124cb912c52aafa97cac667
ph2016-12-29.mk22.sxr4.1644.s1t06.flac:08c845847f1a75dd92a2c7ebbe6f6a45
ph2016-12-29.mk22.sxr4.1644.s1t07.flac:ae383da9e2e8b708b171a3da3f7cb30b
ph2016-12-29.mk22.sxr4.1644.s1t08.flac:355477e45ff96ef2cf52b7ae09969ec9
ph2016-12-29.mk22.sxr4.1644.s1t09.flac:d867e406172807e60963050b43e79400
ph2016-12-29.mk22.sxr4.1644.s1t10.flac:353eb3501afca748d53d5d2a233a4ad8
ph2016-12-29.mk22.sxr4.1644.s1t11.flac:6f263c596d33d03f23dbfaccfcfbed57
ph2016-12-29.mk22.sxr4.1644.s1t12.flac:dde8b129bdaaf0eaefdbd97e51a057e8
ph2016-12-29.mk22.sxr4.1644.s1t13.flac:9454c0911f7b91ef7d47da9deaec0652
ph2016-12-29.mk22.sxr4.1644.s2t01.flac:94873373faff0c99cba9c4b961525824
ph2016-12-29.mk22.sxr4.1644.s2t02.flac:3b0556ee664677115244711a10ceb124
ph2016-12-29.mk22.sxr4.1644.s2t03.flac:7f880a33703408d506850820e88cc2c1
ph2016-12-29.mk22.sxr4.1644.s2t04.flac:9be7684883c43f0fbb3be4262ec5098f
ph2016-12-29.mk22.sxr4.1644.s2t05.flac:dddd4b9c9f1ab8e7642ba9e0679df1bb
ph2016-12-29.mk22.sxr4.1644.s2t06.flac:8fe4cc9f577f74196471dbf71a1c68a2
ph2016-12-29.mk22.sxr4.1644.s2t07.flac:1f30115c3f6827efc7b17d1f7be5a527
ph2016-12-29.mk22.sxr4.1644.s2t08.flac:ceac8d5fd7397978d82e34b9ae80ec49
ph2016-12-29.mk22.sxr4.1644.s2t09.flac:85d61ccd26648ba43236437483d1354b
ph2016-12-29.mk22.sxr4.1644.s2t10.flac:4bbc5882ddd4393427c6f925d846f7b0

    length     expanded size    cdr  WAVE problems  fmt   ratio  filename
     1:05.41       11562476 B   ---   --   -----    wav  1.0000  ph2016-12-29.mk22.sxr4.1644.s1t01.wav
     2:43.30       28823804 B   ---   --   -----    wav  1.0000  ph2016-12-29.mk22.sxr4.1644.s1t02.wav
     3:23.39       35900972 B   ---   --   -----    wav  1.0000  ph2016-12-29.mk22.sxr4.1644.s1t03.wav
     8:50.60       93633164 B   ---   --   -----    wav  1.0000  ph2016-12-29.mk22.sxr4.1644.s1t04.wav
     5:08.03       54338300 B   ---   --   -----    wav  1.0000  ph2016-12-29.mk22.sxr4.1644.s1t05.wav
     8:42.73       92252540 B   ---   --   -----    wav  1.0000  ph2016-12-29.mk22.sxr4.1644.s1t06.wav
     5:31.13       58419020 B   ---   --   -----    wav  1.0000  ph2016-12-29.mk22.sxr4.1644.s1t07.wav
     2:26.60       25895564 B   ---   --   -----    wav  1.0000  ph2016-12-29.mk22.sxr4.1644.s1t08.wav
     9:14.00       97725644 B   ---   --   -----    wav  1.0000  ph2016-12-29.mk22.sxr4.1644.s1t09.wav
     4:15.12       45010268 B   ---   --   -----    wav  1.0000  ph2016-12-29.mk22.sxr4.1644.s1t10.wav
     5:39.55       59929004 B   ---   --   -----    wav  1.0000  ph2016-12-29.mk22.sxr4.1644.s1t11.wav
    10:32.35      111567164 B   ---   --   -----    wav  1.0000  ph2016-12-29.mk22.sxr4.1644.s1t12.wav
    12:13.18      129343580 B   ---   --   -----    wav  1.0000  ph2016-12-29.mk22.sxr4.1644.s1t13.wav
     1:16.19       13451132 B   ---   --   -----    wav  1.0000  ph2016-12-29.mk22.sxr4.1644.s2t01.wav
    15:23.39      162908972 B   ---   --   -----    wav  1.0000  ph2016-12-29.mk22.sxr4.1644.s2t02.wav
     5:11.05       54872204 B   ---   --   -----    wav  1.0000  ph2016-12-29.mk22.sxr4.1644.s2t03.wav
    11:33.61      122388716 B   ---   --   -----    wav  1.0000  ph2016-12-29.mk22.sxr4.1644.s2t04.wav
     8:29.35       89869964 B   ---   --   -----    wav  1.0000  ph2016-12-29.mk22.sxr4.1644.s2t05.wav
    10:13.37      108220268 B   ---   --   -----    wav  1.0000  ph2016-12-29.mk22.sxr4.1644.s2t06.wav
    10:03.29      106437452 B   ---   --   -----    wav  1.0000  ph2016-12-29.mk22.sxr4.1644.s2t07.wav
    13:23.17      141689228 B   ---   --   -----    wav  1.0000  ph2016-12-29.mk22.sxr4.1644.s2t08.wav
     2:28.49       26222492 B   ---   --   -----    wav  1.0000  ph2016-12-29.mk22.sxr4.1644.s2t09.wav
     8:27.59       89573612 B   ---   --   -----    wav  1.0000  ph2016-12-29.mk22.sxr4.1644.s2t10.wav
   166:17.39     1760035540 B                            1.0000  (23 files)




More information about the bittorrent mailing list