[bittorrent] Phish 2016-12-29 Madison Square Garden New York, NY Schoeps mk22>nbob actives>Naiant PFAs>Sonosax SX-R4 **16bit**

Automated Mailer noreply-bt.e at etree.org
Tue Jan 3 03:50:22 UTC 2017


Band:           Phish
Torrent Name:   Phish 2016-12-29 Madison Square Garden New York, NY Schoeps mk22>nbob actives>Naiant PFAs>Sonosax SX-R4 **16bit**
Uploaded by:    andyjah
DB Link:        
Details:        http://bt.etree.org/details.php?id=590642

Contact the seeder at http://db.etree.org/andyjah

If the link to this show does not work, it was probably removed for
being non-trade-friendly.

Description / text file:
-------------------------
Phish
2016-12-28
Madison Square Garden
New York, NY

mics were NOS setup in the OTS to the right of the soundboard

Schoeps mk22>nbob actives>Naiant PFAs>Sonosax SX-R4 (24bit/96khz)

WAV>USB>MacBook Pro>Audacity(tracking,fades)>Sony Soundforge Convrt(resample(izotope,higher than highest settings)/dither(mbit+/ultra, high dither)to 16 bit/44.1k)>XAct(FLAC 8,ffp,fix sbe,tagging)

Recorded and transferred by Andy Murray

Set One:

01. crowd set 1
02. The Star Spangled Banner
03. Stealing Time From The Faulty Plan
04. Lonesome Cowboy Bill >
05. Free
06. Train Song
07. Prince Caspian
08. Roggae
09. Funky Bitch
10. Halfway To The Moon
11. Corinna
12. Stash
13. Cavern

Set Two:

01. Crowd set 2
02. Wolfman's Brother
03. Golden Age ->
04. Simple >
05. Chalk Dust Torture
06. Martian Monster ->
07. Tweezer Reprise ->
08. Martian Monster
09. Wingsuit >
10. Possum
11. Encore break
12. Good Times Bad Times

;flac fingerprints generated by xACT 2.38 on 2017-01-03 03:38:09 +0000

ph2016-12-28.mk22.sxr4.1644.s1t01.flac:1f63621c3df080fdfd23c4b13ce19de2
ph2016-12-28.mk22.sxr4.1644.s1t02.flac:ab40a0211be5a787d4eea2ecf9390909
ph2016-12-28.mk22.sxr4.1644.s1t03.flac:07638fbefee7e208d8153ddfbee12e76
ph2016-12-28.mk22.sxr4.1644.s1t04.flac:0d7476baaa179739d064fd1c2f13d9dc
ph2016-12-28.mk22.sxr4.1644.s1t05.flac:9cb9dc5a3647fd783af9d6f76a3e08e1
ph2016-12-28.mk22.sxr4.1644.s1t06.flac:9912fdafa1a672c5ae1e6a8967cfb64a
ph2016-12-28.mk22.sxr4.1644.s1t07.flac:5fef437ee7ebee64d915c599ea011f64
ph2016-12-28.mk22.sxr4.1644.s1t08.flac:2f56f6b16e4e9b148ea8e1b8decbfb54
ph2016-12-28.mk22.sxr4.1644.s1t09.flac:a4cc5f3886d1dcb852053543c24c61ad
ph2016-12-28.mk22.sxr4.1644.s1t10.flac:27e9b32f8820f7a38de7ff0cb64387b5
ph2016-12-28.mk22.sxr4.1644.s1t11.flac:b6e80368232e4a569117c8d538bce9ff
ph2016-12-28.mk22.sxr4.1644.s1t12.flac:a55f00ea750440b836298d9b69c06658
ph2016-12-28.mk22.sxr4.1644.s1t13.flac:69a135127796a10f51c9c74d4a4cf2fa
ph2016-12-28.mk22.sxr4.1644.s2t01.flac:7a88486707f5cb742f2881a9710faaef
ph2016-12-28.mk22.sxr4.1644.s2t02.flac:6a2d2f6f979d1778855d470b63c67e7e
ph2016-12-28.mk22.sxr4.1644.s2t03.flac:5218c41e37b58eadda7fc3d71773b75d
ph2016-12-28.mk22.sxr4.1644.s2t04.flac:b4aef20311ccaa86b4b37d35489e7f52
ph2016-12-28.mk22.sxr4.1644.s2t05.flac:34708c28316811f0ee53333f457ff4bb
ph2016-12-28.mk22.sxr4.1644.s2t06.flac:bffca03e82c28d0f2033451ed7d06187
ph2016-12-28.mk22.sxr4.1644.s2t07.flac:60aab57fb471995331ff9620f1b9409b
ph2016-12-28.mk22.sxr4.1644.s2t08.flac:7d8b63d6569eb229e02e56a9e72025a9
ph2016-12-28.mk22.sxr4.1644.s2t09.flac:461693ada9a4f46e98bcbb226ec17838
ph2016-12-28.mk22.sxr4.1644.s2t10.flac:af76055954217906a207a55599065df7
ph2016-12-28.mk22.sxr4.1644.s2t11.flac:fb676fbe3640726059fdb88082901c30
ph2016-12-28.mk22.sxr4.1644.s2t12.flac:c6fd91c413ef15636447a2d00c9f803b

    length     expanded size    cdr  WAVE problems  fmt   ratio  filename
     1:32.03       16235900 B   ---   --   -----    wav  1.0000  ph2016-12-28.mk22.sxr4.1644.s1t01.wav
     1:57.21       20688236 B   ---   --   -----    wav  1.0000  ph2016-12-28.mk22.sxr4.1644.s1t02.wav
     5:53.61       62412716 B   ---   --   -----    wav  1.0000  ph2016-12-28.mk22.sxr4.1644.s1t03.wav
     3:11.26       33753596 B   ---   --   -----    wav  1.0000  ph2016-12-28.mk22.sxr4.1644.s1t04.wav
     8:47.53       93087500 B   ---   --   -----    wav  1.0000  ph2016-12-28.mk22.sxr4.1644.s1t05.wav
     2:55.41       30966476 B   ---   --   -----    wav  1.0000  ph2016-12-28.mk22.sxr4.1644.s1t06.wav
     8:28.49       89726492 B   ---   --   -----    wav  1.0000  ph2016-12-28.mk22.sxr4.1644.s1t07.wav
    10:09.72      107596988 B   ---   --   -----    wav  1.0000  ph2016-12-28.mk22.sxr4.1644.s1t08.wav
     6:34.61       69645116 B   ---   --   -----    wav  1.0000  ph2016-12-28.mk22.sxr4.1644.s1t09.wav
    10:05.08      106740860 B   ---   --   -----    wav  1.0000  ph2016-12-28.mk22.sxr4.1644.s1t10.wav
     5:08.13       54361820 B   ---   --   -----    wav  1.0000  ph2016-12-28.mk22.sxr4.1644.s1t11.wav
    11:44.69      124347932 B   ---   --   -----    wav  1.0000  ph2016-12-28.mk22.sxr4.1644.s1t12.wav
     6:02.00       63856844 B   ---   --   -----    wav  1.0000  ph2016-12-28.mk22.sxr4.1644.s1t13.wav
     1:31.34       16132412 B   ---   --   -----    wav  1.0000  ph2016-12-28.mk22.sxr4.1644.s2t01.wav
    13:00.19      137636732 B   ---   --   -----    wav  1.0000  ph2016-12-28.mk22.sxr4.1644.s2t02.wav
    20:36.45      218136284 B   ---   --   -----    wav  1.0000  ph2016-12-28.mk22.sxr4.1644.s2t03.wav
     8:35.33       90923660 B   ---   --   -----    wav  1.0000  ph2016-12-28.mk22.sxr4.1644.s2t04.wav
     6:56.55       73511804 B   ---   --   -----    wav  1.0000  ph2016-12-28.mk22.sxr4.1644.s2t05.wav
     4:36.13       48717020 B   ---   --   -----    wav  1.0000  ph2016-12-28.mk22.sxr4.1644.s2t06.wav
     3:26.01       36340796 B   ---   --   -----    wav  1.0000  ph2016-12-28.mk22.sxr4.1644.s2t07.wav
     1:29.59       15838412 B   ---   --   -----    wav  1.0000  ph2016-12-28.mk22.sxr4.1644.s2t08.wav
    10:09.05      107439404 B   ---   --   -----    wav  1.0000  ph2016-12-28.mk22.sxr4.1644.s2t09.wav
    10:07.32      107150108 B   ---   --   -----    wav  1.0000  ph2016-12-28.mk22.sxr4.1644.s2t10.wav
     3:05.46       32742236 B   ---   --   -----    wav  1.0000  ph2016-12-28.mk22.sxr4.1644.s2t11.wav
     6:59.01       73913996 B   ---   --   -----    wav  1.0000  ph2016-12-28.mk22.sxr4.1644.s2t12.wav
   173:04.70     1831903340 B                            1.0000  (25 files)




More information about the bittorrent mailing list