[bittorrent] Phish 2016-12-31 Madison Square Garden New York, NY Schoeps mk41v/kc5/cmc6>Sonosax SX-R4 **16bit**

Automated Mailer noreply-bt.e at etree.org
Tue Jan 3 01:49:58 UTC 2017


Band:           Phish
Torrent Name:   Phish 2016-12-31 Madison Square Garden New York, NY Schoeps mk41v/kc5/cmc6>Sonosax SX-R4 **16bit**
Uploaded by:    andyjah
DB Link:        
Details:        http://bt.etree.org/details.php?id=590638

Contact the seeder at http://db.etree.org/andyjah

If the link to this show does not work, it was probably removed for
being non-trade-friendly.

Description / text file:
-------------------------
Phish
2016-12-31
Madison Square Garden
New York, NY

mics were DIN setup in the OTS to the left of the soundboard

Schoeps mk41v>kc5>cmc6>Sonosax SX-R4 (24bit/96khz)

WAV>USB>MacBook Pro>Audacity(tracking,fades)>Sony Soundforge Convrt(resample(izotope,higher than highest settings)/dither(mbit+/ultra, high dither)to 16 bit/44.1k)>XAct(FLAC 8,ffp,fix sbe,tagging)

Recorded and transferred by Andy Murray

Set 1

crowd set 1
Don't Bogart That Joint
Your Pet Cat
Kill Devil Falls
Back On the Train
My Soul
banter
Lawn Boy
The Divided Sky
Ya Mar
Character Zero
Walls of the Cave

Set 2

crowd set 2
2001
Carini >
Twist
Piper > 
Ass Handed >
Piper
Sand
Slave to the Traffic Light
More

Set 3

crowd set 3
Petrichor
Cowntdown> Auld Lang Syne
Suzy Greenburg
No Man in No Man's Land
Breath and Burning
Tide Turns
555
Ocelot
banter
First Tube
Encore Break
Loving Cup

;flac fingerprints generated by xACT 2.38 on 2017-01-03 01:35:52 +0000

ph2016-12-31.mk41v.sxr4.1644.s1t01.flac:1a30b83f7ab4effa586293eef49ea6d7
ph2016-12-31.mk41v.sxr4.1644.s1t02.flac:a8b9f4c8d9d8ed9e17b692b0f5635f1d
ph2016-12-31.mk41v.sxr4.1644.s1t03.flac:7a4c0ad06dbc9621fdb1497cb2974b84
ph2016-12-31.mk41v.sxr4.1644.s1t04.flac:ed3de2ceab2402b2da9c343966d74bdc
ph2016-12-31.mk41v.sxr4.1644.s1t05.flac:94cd4be8a10c6effcc3f200b58da8555
ph2016-12-31.mk41v.sxr4.1644.s1t06.flac:0ad5d5e3a412e0ad066b739ae34db779
ph2016-12-31.mk41v.sxr4.1644.s1t07.flac:cbf7f4a0c288f60fa351c49e28ad4c83
ph2016-12-31.mk41v.sxr4.1644.s1t08.flac:505555345a8fd51f1a0d62b540b41f6b
ph2016-12-31.mk41v.sxr4.1644.s1t09.flac:d07c5bd1d432de5d27e3699348e8ec7c
ph2016-12-31.mk41v.sxr4.1644.s1t10.flac:b70dbc6dd8036c0b22117d15b30b7a9e
ph2016-12-31.mk41v.sxr4.1644.s1t11.flac:71e7c15110e16b37eac06fc6b6f4a76b
ph2016-12-31.mk41v.sxr4.1644.s1t12.flac:557d204d5dbd4d2b7fb4ec954d827d5d
ph2016-12-31.mk41v.sxr4.1644.s2t01.flac:64c52dfd21f37270c4da0dd0b64768f4
ph2016-12-31.mk41v.sxr4.1644.s2t02.flac:cd79abb077f89d1aed58673e1f6e18c8
ph2016-12-31.mk41v.sxr4.1644.s2t03.flac:597b12667f2e47736cc6bf763af7fec5
ph2016-12-31.mk41v.sxr4.1644.s2t04.flac:799a8754c4e6b462f020fc7a0104b16b
ph2016-12-31.mk41v.sxr4.1644.s2t05.flac:9e31fbf17a360e4b40afa00abc326ccb
ph2016-12-31.mk41v.sxr4.1644.s2t06.flac:21f33db78ab475c658006088ac51451f
ph2016-12-31.mk41v.sxr4.1644.s2t07.flac:7c6f1088420c8ce60b79732b914dbdfe
ph2016-12-31.mk41v.sxr4.1644.s2t08.flac:89448760e3ab7d29fc2d1ac31bc7352a
ph2016-12-31.mk41v.sxr4.1644.s2t09.flac:c5a8bdae6276b1bb21686289a33f3475
ph2016-12-31.mk41v.sxr4.1644.s2t10.flac:57f8d68243e012f9fcc21fe0b93f8199
ph2016-12-31.mk41v.sxr4.1644.s3t01.flac:662dfc1f5c62a61c412cdcefc162e15f
ph2016-12-31.mk41v.sxr4.1644.s3t02.flac:7c5cf5c5b7b173215ff0a17c06a53dbc
ph2016-12-31.mk41v.sxr4.1644.s3t03.flac:05f5eaa0175b5ebc7d9be9d91936cb35
ph2016-12-31.mk41v.sxr4.1644.s3t04.flac:5db214f7562716139eb4fc41134c0272
ph2016-12-31.mk41v.sxr4.1644.s3t05.flac:f1bca72618b18d8932455925e6348cf7
ph2016-12-31.mk41v.sxr4.1644.s3t06.flac:1d5d06a0a4047ca5996a7132fbff64f6
ph2016-12-31.mk41v.sxr4.1644.s3t07.flac:1b09a4c69f725e4360779ef181504614
ph2016-12-31.mk41v.sxr4.1644.s3t08.flac:505264f98161e0ac5104aa4982369841
ph2016-12-31.mk41v.sxr4.1644.s3t09.flac:bbe64e21db716f02fda8f3d032f06a8c
ph2016-12-31.mk41v.sxr4.1644.s3t10.flac:17f5e5f02b6b869eeb01b26a4f5a7a94
ph2016-12-31.mk41v.sxr4.1644.s3t11.flac:b1ba3921b3963adef3d1c6e63f194fba
ph2016-12-31.mk41v.sxr4.1644.s3t12.flac:d871c2e1c39bd973bd259ee1cc5398b0
ph2016-12-31.mk41v.sxr4.1644.s3t13.flac:c8716ec336f430a4af5431d07c0a61f5

    length     expanded size    cdr  WAVE problems  fmt   ratio  filename
     1:04.08       11308460 B   ---   --   -----    wav  1.0000  ph2016-12-31.mk41v.sxr4.1644.s1t01.wav
     2:15.44       23917532 B   ---   --   -----    wav  1.0000  ph2016-12-31.mk41v.sxr4.1644.s1t02.wav
     3:43.36       39421916 B   ---   --   -----    wav  1.0000  ph2016-12-31.mk41v.sxr4.1644.s1t03.wav
     7:19.29       77507852 B   ---   --   -----    wav  1.0000  ph2016-12-31.mk41v.sxr4.1644.s1t04.wav
     7:11.21       76077836 B   ---   --   -----    wav  1.0000  ph2016-12-31.mk41v.sxr4.1644.s1t05.wav
     6:15.49       66265292 B   ---   --   -----    wav  1.0000  ph2016-12-31.mk41v.sxr4.1644.s1t06.wav
     1:37.00       17110844 B   ---   --   -----    wav  1.0000  ph2016-12-31.mk41v.sxr4.1644.s1t07.wav
     3:27.35       36597164 B   ---   --   -----    wav  1.0000  ph2016-12-31.mk41v.sxr4.1644.s1t08.wav
    14:52.06      157362956 B   ---   --   -----    wav  1.0000  ph2016-12-31.mk41v.sxr4.1644.s1t09.wav
     6:05.07       64402508 B   ---   --   -----    wav  1.0000  ph2016-12-31.mk41v.sxr4.1644.s1t10.wav
     7:23.54       78272252 B   ---   --   -----    wav  1.0000  ph2016-12-31.mk41v.sxr4.1644.s1t11.wav
    12:40.32      134139308 B   ---   --   -----    wav  1.0000  ph2016-12-31.mk41v.sxr4.1644.s1t12.wav
     0:50.39        8911772 B   ---   --   -----    wav  1.0000  ph2016-12-31.mk41v.sxr4.1644.s2t01.wav
     8:58.40       94997324 B   ---   --   -----    wav  1.0000  ph2016-12-31.mk41v.sxr4.1644.s2t02.wav
     9:42.58      102801260 B   ---   --   -----    wav  1.0000  ph2016-12-31.mk41v.sxr4.1644.s2t03.wav
    11:51.61      125563916 B   ---   --   -----    wav  1.0000  ph2016-12-31.mk41v.sxr4.1644.s2t04.wav
     0:31.55        5597804 B   ---   --   -----    wav  1.0000  ph2016-12-31.mk41v.sxr4.1644.s2t05.wav
     1:09.26       12232796 B   ---   --   -----    wav  1.0000  ph2016-12-31.mk41v.sxr4.1644.s2t06.wav
    11:40.05      123491804 B   ---   --   -----    wav  1.0000  ph2016-12-31.mk41v.sxr4.1644.s2t07.wav
     9:35.03      101437100 B   ---   --   -----    wav  1.0000  ph2016-12-31.mk41v.sxr4.1644.s2t08.wav
     8:53.21       94070636 B   ---   --   -----    wav  1.0000  ph2016-12-31.mk41v.sxr4.1644.s2t09.wav
     7:16.01       76912796 B   ---   --   -----    wav  1.0000  ph2016-12-31.mk41v.sxr4.1644.s2t10.wav
     1:38.24       17343692 B   ---   --   -----    wav  1.0000  ph2016-12-31.mk41v.sxr4.1644.s3t01.wav
    17:09.24      181572092 B   ---   --   -----    wav  1.0000  ph2016-12-31.mk41v.sxr4.1644.s3t02.wav
     1:46.34       18778412 B   ---   --   -----    wav  1.0000  ph2016-12-31.mk41v.sxr4.1644.s3t03.wav
     5:56.47       62908988 B   ---   --   -----    wav  1.0000  ph2016-12-31.mk41v.sxr4.1644.s3t04.wav
     8:47.67       93120428 B   ---   --   -----    wav  1.0000  ph2016-12-31.mk41v.sxr4.1644.s3t05.wav
     7:17.57       77220908 B   ---   --   -----    wav  1.0000  ph2016-12-31.mk41v.sxr4.1644.s3t06.wav
     4:39.33       49293260 B   ---   --   -----    wav  1.0000  ph2016-12-31.mk41v.sxr4.1644.s3t07.wav
     5:43.13       60535820 B   ---   --   -----    wav  1.0000  ph2016-12-31.mk41v.sxr4.1644.s3t08.wav
    10:06.61      107041916 B   ---   --   -----    wav  1.0000  ph2016-12-31.mk41v.sxr4.1644.s3t09.wav
     3:43.25       39396044 B   ---   --   -----    wav  1.0000  ph2016-12-31.mk41v.sxr4.1644.s3t10.wav
     7:20.10       77639564 B   ---   --   -----    wav  1.0000  ph2016-12-31.mk41v.sxr4.1644.s3t11.wav
     3:53.11       41127116 B   ---   --   -----    wav  1.0000  ph2016-12-31.mk41v.sxr4.1644.s3t12.wav
     9:11.20       97243484 B   ---   --   -----    wav  1.0000  ph2016-12-31.mk41v.sxr4.1644.s3t13.wav
   231:38.06     2451622852 B                            1.0000  (35 files)





More information about the bittorrent mailing list