[bittorrent] gd1972-12-31.137465.fm.GEMS.flac16

Automated Mailer noreply-bt.e at etree.org
Mon Jan 2 22:59:54 UTC 2017


Band:           Grateful Dead
Torrent Name:   gd1972-12-31.137465.fm.GEMS.flac16
Uploaded by:    greendude
DB Link:        
Details:        http://bt.etree.org/details.php?id=590635

Contact the seeder at http://db.etree.org/greendude

If the link to this show does not work, it was probably removed for
being non-trade-friendly.

Description / text file:
-------------------------
Grateful Dead
Sunday, December 31, 1972
Winterland Arena
San Francisco, CA  

Recording of FM Broadcast on KSAN
DAT provided and transferred by Stuccoholmes

Mastering & Editing by Jason Chastain in Audition CC 2015
Final Mastering by Jamie Waddell in Wavelab 7.1
Critical Listening assistance and Track, FLAC and Pack by Norm

A gift to www.shnflac.net and to all
who help share so much grateful music,
much more to come.  January 1, 2017

FLAC 16 bit 44.1kHz

--Set 1--
01 NYE countdown >
02 Around And Around
03 Deal
04 tuning
05 Mexicali Blues
06 tuning
07 Brown Eyed Women
08 tuning
09 Box Of Rain
10 tuning
11 Jack Straw
12 tuning
13 Don't Ease Me In
14 tuning
15 Beat It On Down The Line
16 Candyman
17 tuning
18 El Paso
19 Tennessee Jed
20 tuning
21 Playing In The Band
22 Casey Jones
23 DJ

--Set 2--
24 The Promised Land
25 Mississippi Half-Step Uptown Toodeloo
26 tuning
27 Big River
28 Sugaree
29 tuning
30 Truckin' >
31 The Other One >
32 Drums >
33 Drums and Bass >
34 The Other One >
35 Morning Dew
36 tuning
37 Sugar Magnolia
38 tuning
39 Sing Me Back Home
40 tuning
41 Johnny B. Goode

Encore
42 Uncle John's Band
43 //One More Saturday Night


a modified version of shnid 20559 was used to make several patches.
 

    length     expanded size    cdr  WAVE problems  fmt   ratio  filename
     0:51.51        9116396 B   ---   --   ---xx   flac  0.6067  gd1972-12-31s1t01.flac
     4:42.73       49916540 B   ---   --   ---xx   flac  0.6002  gd1972-12-31s1t02.flac
     4:17.65       45487724 B   ---   --   ---xx   flac  0.5877  gd1972-12-31s1t03.flac
     1:16.73       13578140 B   ---   --   ---xx   flac  0.4745  gd1972-12-31s1t04.flac
     3:26.24       36394892 B   ---   --   ---xx   flac  0.5960  gd1972-12-31s1t05.flac
     0:54.45        9631484 B   ---   --   ---xx   flac  0.4997  gd1972-12-31s1t06.flac
     4:47.17       50666828 B   ---   --   ---xx   flac  0.5728  gd1972-12-31s1t07.flac
     1:21.62       14434268 B   ---   --   ---xx   flac  0.4435  gd1972-12-31s1t08.flac
     5:05.31       53874956 B   ---   --   ---xx   flac  0.5734  gd1972-12-31s1t09.flac
     1:33.70       16569884 B   ---   --   ---xx   flac  0.4398  gd1972-12-31s1t10.flac
     4:50.52       51278348 B   ---   --   ---xx   flac  0.5776  gd1972-12-31s1t11.flac
     0:39.10        6903164 B   ---   --   ---xx   flac  0.4976  gd1972-12-31s1t12.flac
     3:51.24       40804892 B   ---   --   ---xx   flac  0.5776  gd1972-12-31s1t13.flac
     1:38.54       17414252 B   ---   --   ---xx   flac  0.4425  gd1972-12-31s1t14.flac
     3:53.15       41136524 B   ---   --   ---xx   flac  0.5559  gd1972-12-31s1t15.flac
     6:49.12       72175868 B   ---   --   ---xx   flac  0.5416  gd1972-12-31s1t16.flac
     1:27.13       15377420 B   ---   --   ---xx   flac  0.4402  gd1972-12-31s1t17.flac
     4:32.70       48145484 B   ---   --   ---xx   flac  0.5698  gd1972-12-31s1t18.flac
     7:35.49       80377292 B   ---   --   ---xx   flac  0.5659  gd1972-12-31s1t19.flac
     6:13.70       65961884 B   ---   --   ---xx   flac  0.4404  gd1972-12-31s1t20.flac
    18:59.20      200966684 B   ---   --   ---xx   flac  0.5705  gd1972-12-31s1t21.flac
     6:20.08       67050860 B   ---   --   ---xx   flac  0.5755  gd1972-12-31s1t22.flac
     0:18.57        3309308 B   ---   --   ---xx   flac  0.6178  gd1972-12-31s1t23.flac
     3:40.27       38871548 B   ---   --   ---xx   flac  0.5654  gd1972-12-31s2t01.flac
     9:29.12      100399868 B   ---   --   ---xx   flac  0.5709  gd1972-12-31s2t02.flac
     2:23.15       25260524 B   ---   --   ---xx   flac  0.4919  gd1972-12-31s2t03.flac
     5:03.52       53571548 B   ---   --   ---xx   flac  0.5727  gd1972-12-31s2t04.flac
     7:12.29       76273052 B   ---   --   ---xx   flac  0.5595  gd1972-12-31s2t05.flac
     1:35.73       16929740 B   ---   --   ---xx   flac  0.4444  gd1972-12-31s2t06.flac
    14:12.25      150351644 B   ---   --   ---xx   flac  0.5736  gd1972-12-31s2t07.flac
     8:05.01       85556396 B   ---   --   ---xx   flac  0.5575  gd1972-12-31s2t08.flac
     3:38.54       38582252 B   ---   --   ---xx   flac  0.5751  gd1972-12-31s2t09.flac
     3:14.16       34259276 B   ---   --   ---xx   flac  0.5844  gd1972-12-31s2t10.flac
    26:44.18      282987980 B   ---   --   ---xx   flac  0.5699  gd1972-12-31s2t11.flac
    12:46.30      135193004 B   ---   --   ---xx   flac  0.5618  gd1972-12-31s2t12.flac
     1:02.36       11021516 B   ---   --   ---xx   flac  0.5534  gd1972-12-31s2t13.flac
     9:05.03       96145100 B   ---   --   ---xx   flac  0.5449  gd1972-12-31s2t14.flac
     1:36.61       17077916 B   ---   --   ---xx   flac  0.5694  gd1972-12-31s2t15.flac
     9:43.36      102925916 B   ---   --   ---xx   flac  0.5538  gd1972-12-31s2t16.flac
     6:14.30       66044204 B   ---   --   ---xx   flac  0.5416  gd1972-12-31s2t17.flac
     4:08.34       43827212 B   ---   --   ---xx   flac  0.6232  gd1972-12-31s2t18.flac
     7:46.61       82345916 B   ---   --   ---xx   flac  0.5198  gd1972-12-31s2t19.flac
     4:45.07       50290508 B   ---   --   ---xx   flac  0.5551  gd1972-12-31s2t20.flac
   237:57.10     2518488212 B                            0.5575  (43 files)



More information about the bittorrent mailing list