[bittorrent] jg1976-02-13.jgb.sbd.smith.sirmick.137467.sbeok.flac16 e

Automated Mailer noreply-bt.e at etree.org
Mon Jan 2 06:01:49 UTC 2017


Band:           Garcia
Torrent Name:   jg1976-02-13.jgb.sbd.smith.sirmick.137467.sbeok.flac16 e
Uploaded by:    grateful darkstar
DB Link:        
Details:        http://bt.etree.org/details.php?id=590630

Contact the seeder at http://db.etree.org/grateful darkstar

If the link to this show does not work, it was probably removed for
being non-trade-friendly.

Description / text file:
-------------------------
Jerry Garcia Band
Keystone
Berkeley, CA
02/13/1976

Source:  Master Reel > Reel
Transfer: Reel > Technics RS1506 > Apogee Mini Me > Apogee Mini Dac > FLAC (24/96)
Lineage: wav 24/96 > Adobe Audition 3.0.1 > iZotope RX4 Advanced > iZotope Ozone 5 Advanced >
         iZotope RX4 Advanced > wav 16/44.1 > CD Wave > TLH > Flac 16


Set I

01   How Sweet It Is (To Be Loved By You)
02   Catfish John
03   After Midnight
04   Mission In The Rain
05   Who Was John
06   They Love Each Other
07   Moonlight Mile


Set II

01   The Harder They Come
02   Knockin' On Heaven's Door
03   Talkin' 'Bout You




Jerry Garcia - guitar, vocals
John Kahn - bass
Keith Godchaux - keyboards
Donna Jean Godchaux - backing vocals
Ron Tutt - drums



Comments:

- It was thought that there were probably songs missing from Set II but in view of the fact that
  this recording has the same songs as the circulating aud, it's probably safe to assume that no
  others were played.


Notes:

patch details

- all of "How Sweet It Is"
- the first 2:59 of "Catfish John"
- "Who Was John"  9:04-10:51
- The first 2:36 of "The Harder They Come"
- "Talkin' 'Bout You" 3:08-3:40

Source used - Aud of uncertain origin > DAT > CD > EAC > SHN. shnid 83947

- I also applied some light noise reduction.



Thanks to Matt Smith for providing this source and doing the transfer and thanks to Charlie Miller for passing it on to me.

Thanks to Joe B. Jones for his advice with regard to pitch correction.



edited and mastered
SIRMick
January 2017


shntool output:

    length     expanded size    cdr  WAVE problems  fmt   ratio  filename
    13:05.08      138492860 B   ---   --   ---xx   flac  0.6191  jgb1976-02-13s1t01.flac
    16:27.14      174139772 B   ---   --   ---xx   flac  0.4793  jgb1976-02-13s1t02.flac
    13:52.26      146825996 B   ---   --   ---xx   flac  0.4591  jgb1976-02-13s1t03.flac
     8:02.40       85118924 B   ---   --   ---xx   flac  0.4312  jgb1976-02-13s1t04.flac
    15:22.20      162687884 B   ---   --   ---xx   flac  0.4277  jgb1976-02-13s1t05.flac
    10:30.20      111179084 B   ---   --   ---xx   flac  0.3981  jgb1976-02-13s1t06.flac
    10:35.45      112119884 B   ---   --   ---xx   flac  0.4158  jgb1976-02-13s1t07.flac
    19:56.45      211080284 B   ---   --   ---xx   flac  0.4600  jgb1976-02-13s2t01.flac
    20:11.69      213782732 B   ---   --   ---xx   flac  0.4309  jgb1976-02-13s2t02.flac
    10:32.37      111571868 B   ---   --   ---xx   flac  0.4935  jgb1976-02-13s2t03.flac
   138:36.24     1466999288 B                            0.4622  (10 files)





More information about the bittorrent mailing list