[bittorrent] jg1976-02-13.jgb.sbd.smith.sirmick.137466.sbeok.flac24 e

Automated Mailer noreply-bt.e at etree.org
Mon Jan 2 05:59:16 UTC 2017


Band:           Garcia
Torrent Name:   jg1976-02-13.jgb.sbd.smith.sirmick.137466.sbeok.flac24 e
Uploaded by:    grateful darkstar
DB Link:        
Details:        http://bt.etree.org/details.php?id=590629

Contact the seeder at http://db.etree.org/grateful darkstar

If the link to this show does not work, it was probably removed for
being non-trade-friendly.

Description / text file:
-------------------------
Jerry Garcia Band
Keystone
Berkeley, CA
02/13/1976

Source:  Master Reel > Reel
Transfer: Reel > Technics RS1506 > Apogee Mini Me > Apogee Mini Dac > FLAC (24/96)
Lineage: wav 24/96 > Adobe Audition 3.0.1 > iZotope RX4 Advanced > iZotope Ozone 5 Advanced >
         CD Wave > TLH > Flac 24


Set I

01   How Sweet It Is (To Be Loved By You)
02   Catfish John
03   After Midnight
04   Mission In The Rain
05   Who Was John
06   They Love Each Other
07   Moonlight Mile


Set II

01   The Harder They Come
02   Knockin' On Heaven's Door
03   Talkin' 'Bout You




Jerry Garcia - guitar, vocals
John Kahn - bass
Keith Godchaux - keyboards
Donna Jean Godchaux - backing vocals
Ron Tutt - drums


Comments:

- It was thought that there were probably songs missing from Set II but in view of the fact that
  this recording has the same songs as the circulating aud, it's probably safe to assume that no
  others were played.


Notes:

patch details

- all of "How Sweet It Is"
- the first 2:59 of "Catfish John"
- "Who Was John"  9:04-10:51
- The first 2:36 of "The Harder They Come"
- "Talkin' 'Bout You" 3:08-3:40

Source used - Aud of uncertain origin > DAT > CD > EAC > SHN. shnid 83947

- I also applied some light noise reduction.



Thanks to Matt Smith for providing this source and doing the transfer and thanks to Charlie Miller for passing it on to me.

Thanks to Joe B. Jones for his advice with regard to pitch correction.



edited and mastered
SIRMick
January 2017


shntool output:

    length     expanded size    cdr  WAVE problems  fmt   ratio  filename
    13:05.107     452221484 B   cxx   --   ---xx   flac  0.5945  jgb1976-02-13s1t01.flac
    16:27.187     568619564 B   cxx   --   ---xx   flac  0.5229  jgb1976-02-13s1t02.flac
    13:52.347     479431724 B   cxx   --   ---xx   flac  0.5178  jgb1976-02-13s1t03.flac
     8:02.533     277939244 B   cxx   --   ---xx   flac  0.5004  jgb1976-02-13s1t04.flac
    15:22.267     531225644 B   cxx   --   ---xx   flac  0.4908  jgb1976-02-13s1t05.flac
    10:30.267     363033644 B   cxx   --   ---xx   flac  0.4720  jgb1976-02-13s1t06.flac
    10:35.600     366105644 B   cxx   --   ---xx   flac  0.4919  jgb1976-02-13s1t07.flac
    19:56.600     689241644 B   cxx   --   ---xx   flac  0.5256  jgb1976-02-13s2t01.flac
    20:11.920     698065964 B   cxx   --   ---xx   flac  0.5116  jgb1976-02-13s2t02.flac
    10:32.493     364316204 B   cxx   --   ---xx   flac  0.5456  jgb1976-02-13s2t03.flac
   138:36.320    4790200760 B                            0.5185  (10 files)






More information about the bittorrent mailing list