[bittorrent] Cody Matlock Band Nik's Place Marietta, Georgia 1/1/2017 (Schoeps CCM4V'S FOB)

Automated Mailer noreply-bt.e at etree.org
Mon Jan 2 05:51:16 UTC 2017


Band:           Other
Torrent Name:   Cody Matlock Band Nik's Place Marietta, Georgia 1/1/2017 (Schoeps CCM4V'S FOB)
Uploaded by:    zmanatl
DB Link:        
Details:        http://bt.etree.org/details.php?id=590628

Contact the seeder at http://db.etree.org/zmanatl

If the link to this show does not work, it was probably removed for
being non-trade-friendly.

Description / text file:
-------------------------
Cody Matlock Band
Nik's Place
Marietta, Georgia
1/1/2017

Source: Schoeps CCM4V's>Lunatec V2>Benchmark AD2K>
Sound Devices 722 (24/44)
FOB/DFC/KFC/ZFC/AARP 4' From Stage, 6' High
DSP: Sound Devices 722>Sound Forge 10.0>CD Wave>flac(16)
ID3 Tagged In Foobar 2000
Recorded By: Z-Man
Seeded By: Z-Man

Disc I 

01 *?
02 Pretty Woman 
03 Hit The Road 
04 If You Love Me ike You Say >
05 Third Stone From The Sun Jam >
06 If You Love Me Like You Say 
07 Find Yourself
08 I'm A Ram
09 Just Kissed My Baby

Disc II 

01 Hey Pockey Way 
02 Move On Up
03 Get Out My Life Woman >
04 Bring It On Home To Me 
05 If The Music Feels Real Good >
06 Get On Up/Sex Machine >
07 Shake Your Money Maker 
08 Love And Happiness >
09 Miss You >
10 Love And Happiness

* This Fades In As I arrived After They Started Playing This Song.

Cody Matlock - Guitar And Vocals
John Schwenke - Bass And Vocals
Tyler Neal - Guiyar And Vocals
Daniel Harper - Drums

cody2017-01-01d01t01.flac:a7c4acc4ca18ee87a990f33fc0371b22
cody2017-01-01d01t02.flac:9a4182189650a6469fb5f5f0808b0f6d
cody2017-01-01d01t03.flac:7805d6ce5aa9d7acb93816e275878bca
cody2017-01-01d01t04.flac:069d7436d8f74968a14781bdec4cfb58
cody2017-01-01d01t05.flac:27b427a917c6c6c09a471f7c164d7e84
cody2017-01-01d01t06.flac:436985c2735a56e5e059d5026b642c87
cody2017-01-01d01t07.flac:c43fda052a285fdbaac5c8a4929cd9b3
cody2017-01-01d01t08.flac:fa85602f0057879fe26d86c85bc9ef19
cody2017-01-01d01t09.flac:8c7f0193529c6a7bfbc889a5cc7dee48
cody2017-01-01d02t01.flac:07750ee74b0549b28f09cf36d561f535
cody2017-01-01d02t02.flac:57dce05ca2bd96fbe1f3e744cdac4ab6
cody2017-01-01d02t03.flac:2534cc4bcd102f39175b14d96a982aad
cody2017-01-01d02t04.flac:e6c3fe18c2a75f911497ea382d0e693a
cody2017-01-01d02t05.flac:7927900ac57b285c7fe56f65092892ec
cody2017-01-01d02t06.flac:da864d4a16921abd1e39a00c81bf9e35
cody2017-01-01d02t07.flac:2e95ca100e654dd08298185fda9d19f9
cody2017-01-01d02t08.flac:818cc566acdb1653e6dea50cf681078a
cody2017-01-01d02t09.flac:b9ca5d52631a1429f08e64a74c12b339
cody2017-01-01d02t10.flac:decd7dfe58c65c53cc3dd87a00b443a4

 length     expanded size    cdr  WAVE problems  fmt   ratio  filename
     1:58.00       20815244 B   ---   --   ---xx   flac  0.5536  cody2017-01-01d01t01.flac
     6:17.02       66507548 B   ---   --   ---xx   flac  0.4678  cody2017-01-01d01t02.flac
     5:08.18       54373580 B   ---   --   ---xx   flac  0.4560  cody2017-01-01d01t03.flac
     5:19.53       56396300 B   ---   --   ---xx   flac  0.4473  cody2017-01-01d01t04.flac
     0:42.06        7422956 B   ---   --   ---xx   flac  0.6037  cody2017-01-01d01t05.flac
     3:02.27       32168348 B   ---   --   ---xx   flac  0.3962  cody2017-01-01d01t06.flac
     5:57.12       63003068 B   ---   --   ---xx   flac  0.4447  cody2017-01-01d01t07.flac
     6:00.50       63621644 B   ---   --   ---xx   flac  0.4746  cody2017-01-01d01t08.flac
     6:33.56       69456956 B   ---   --   ---xx   flac  0.4737  cody2017-01-01d01t09.flac
     6:18.16       66716876 B   ---   --   ---xx   flac  0.4728  cody2017-01-01d02t01.flac
     6:55.02       73210748 B   ---   --   ---xx   flac  0.4933  cody2017-01-01d02t02.flac
     5:51.68       62076380 B   ---   --   ---xx   flac  0.4757  cody2017-01-01d02t03.flac
     5:44.46       60789836 B   ---   --   ---xx   flac  0.4753  cody2017-01-01d02t04.flac
     7:59.09       84516812 B   ---   --   ---xx   flac  0.5120  cody2017-01-01d02t05.flac
     3:59.10       42183164 B   ---   --   ---xx   flac  0.5422  cody2017-01-01d02t06.flac
     0:49.06        8657756 B   ---   --   ---xx   flac  0.4867  cody2017-01-01d02t07.flac
     2:58.19       31443932 B   ---   --   ---xx   flac  0.4834  cody2017-01-01d02t08.flac
     3:59.14       42192572 B   ---   --   ---xx   flac  0.4662  cody2017-01-01d02t09.flac
     1:54.04       20119052 B   ---   --   ---xx   flac  0.4782  cody2017-01-01d02t10.flac
    87:27.43      925672772 B                            0.4774  (19 files)














More information about the bittorrent mailing list