[bittorrent] Widespread Panic Bridgestone Arena Nashville, Tennessee 12/31/2016 (Schoeps CCM4V'S FOB)

Automated Mailer noreply-bt.e at etree.org
Sun Jan 1 11:19:06 UTC 2017


Band:           Widespread Panic
Torrent Name:   Widespread Panic Bridgestone Arena Nashville, Tennessee 12/31/2016 (Schoeps CCM4V'S FOB) 
Uploaded by:    zmanatl
DB Link:        
Details:        http://bt.etree.org/details.php?id=590613

Contact the seeder at http://db.etree.org/zmanatl

If the link to this show does not work, it was probably removed for
being non-trade-friendly.

Description / text file:
-------------------------
Widespread Panic
Bridgestone Arena
Nashville, Tennessee
12/31/2016 

Source: Schoeps CCM4V's>Lunatec V2>Benchmark AD2K>
Sound Devices 722 (24/44)
FOB/DFC/KFC/ZFC/AARP 50' From Stage, 6' High
DSP: Sound Devices 722>Sound Forge 10.0>CD Wave>flac(16)
ID3 Tagged In Foobar 2000
Recorded By: Z-Man
Seeded By: Z-Man

Disc I 1st Set

01 Greeting 
02 Blue Indian
03 Holden Oversoul
04 *May Your Glass Be Full
05 *Her Dance Needs No Body
06 *Crazy
07 *#Still Crazy After All These Years (Oops)
08 *#Still Crazy After All These Years 
09 *#Expiration Day

Disc II 2nd Set 

01 JB Banter
02 Pigeons >
03 Henry Parsons Died
04 Rebirtha
05 %Sharon
06 %Taildragger
07 %Tall Boy 
08 @Can't Get High
09 @^Ain't Life Grand 

Disc III 3rd Set 

01 Steve Lopez Countdown >
03 Auld Lang Syne PA
04 House PA Music
04 JB Banter - Happy New Year!
05 Disco >
06 @%With A Little Help From My Friends
07 @%Hope In A Hopeless World
08 @%Up All Night >
09 @%Moondance 
10 @%Bust It Big >
11 Drum Solo >
12 Chilly Water 

Disc IV 3rd Set Con't 

01 @All Time Low >
02 @^Red Hot Mama
Encore:
03 JB Thanks
04 @For What It's Worth 
05 @%Burnin' Down The House 

* With The Love Sponge Quartet With Their Conductor (Kristin Wilkinson On Viola, 
  David Davidson On Violin, David Angell On Violin, And ? On Violin)   
# With Randall Bramblett 
@ With The McCrary Sisters On Vocals And Percussion
^ With Dave Davidson On Violin
% With Randall Bramblett And The Megablasters 

wsp2016-12-31d01t01.flac:965b3684e54d47d51a1f41a7013210b6
wsp2016-12-31d01t02.flac:36cff72c35f1a145d7ef94920b4aae38
wsp2016-12-31d01t03.flac:e4dfc14ea2222b0cc154c5d071fb35ad
wsp2016-12-31d01t04.flac:ba2904a83b2f8a9991cfd7764d6fa00f
wsp2016-12-31d01t05.flac:eee4aed6a23b8cbb082e7c76e56ab5ae
wsp2016-12-31d01t06.flac:081770de923ad29a5b44fa6f0d98ac5f
wsp2016-12-31d01t07.flac:8881a17d3ac5d2b89996ac2d87913b4c
wsp2016-12-31d01t08.flac:94afceb08438761021d07ec02e16212b
wsp2016-12-31d01t09.flac:91842b4d99c7e19c2aea3a9d347c502a
wsp2016-12-31d02t01.flac:ddc9d478bf056e9d7f5fe605f302d479
wsp2016-12-31d02t02.flac:8d5245a7cccbb383d57445d8ac009628
wsp2016-12-31d02t03.flac:0f67f1737c1832958349d35bec6b9abb
wsp2016-12-31d02t04.flac:9b688175203908df70816ec0e0613e63
wsp2016-12-31d02t05.flac:cf4b09ac1d781a2f64aa8eb09e80a1b3
wsp2016-12-31d02t06.flac:3a8c089068c21173245f30344c7260a2
wsp2016-12-31d02t07.flac:bcac0a345aa95752cf21712b9ac46162
wsp2016-12-31d02t08.flac:9f5ed7fe4f4f4a41881ad4f0392ffbf8
wsp2016-12-31d02t09.flac:9f4231909210757416b510a4a99192fe
wsp2016-12-31d03t01.flac:76b21ff378cc28a3c7cf1c15df9853e3
wsp2016-12-31d03t02.flac:9d8a6cfb559607deba51e34f1949470e
wsp2016-12-31d03t03.flac:2220f480d7934364ca3df44877a16839
wsp2016-12-31d03t04.flac:6a95c0f61e941c11ef7f0b09ecaa4803
wsp2016-12-31d03t05.flac:0416859bae5d6bcdd0e781b78cd316b0
wsp2016-12-31d03t06.flac:e9c88818e416a61211b564bbfa1fb500
wsp2016-12-31d03t07.flac:e19fdea23f4c3aad85cf61f6e2c1e716
wsp2016-12-31d03t08.flac:da2c3d13dd787f1a1ef2707a8ca2d68c
wsp2016-12-31d03t09.flac:60f11beb889e75687e462ef618518920
wsp2016-12-31d03t10.flac:9e8ee025f841ab510519d78082d75520
wsp2016-12-31d03t11.flac:bd4bdfa290c6e6e33214ee6516a30e56
wsp2016-12-31d03t12.flac:931b11982b7b01d62aad21ff5a0f54c4
wsp2016-12-31d04t01.flac:db315fa4b7b1e6454869eb3b586dafe1
wsp2016-12-31d04t02.flac:971678a29f18eb125b95e0613bf5e36c
wsp2016-12-31d04t03.flac:d38c94bd1e53609d53ee3266d34691ee
wsp2016-12-31d04t04.flac:5d30502940393036fce0d21fba6c19c4
wsp2016-12-31d04t05.flac:bf5d56efdb84ba704df71c633e96381f

 length     expanded size    cdr  WAVE problems  fmt   ratio  filename
     0:18.67        3332828 B   ---   --   ---xx   flac  0.4363  wsp2016-12-31d01t01.flac
     5:07.22       54206588 B   ---   --   ---xx   flac  0.4948  wsp2016-12-31d01t02.flac
     6:13.31       65870156 B   ---   --   ---xx   flac  0.5473  wsp2016-12-31d01t03.flac
     5:09.07       54524108 B   ---   --   ---xx   flac  0.4959  wsp2016-12-31d01t04.flac
     9:51.00      104252444 B   ---   --   ---xx   flac  0.5499  wsp2016-12-31d01t05.flac
     8:17.10       87694364 B   ---   --   ---xx   flac  0.5278  wsp2016-12-31d01t06.flac
     0:34.13        6028220 B   ---   --   ---xx   flac  0.4649  wsp2016-12-31d01t07.flac
     4:01.64       42662972 B   ---   --   ---xx   flac  0.4977  wsp2016-12-31d01t08.flac
     5:31.27       58451948 B   ---   --   ---xx   flac  0.5028  wsp2016-12-31d01t09.flac
     0:24.16        4271276 B   ---   --   ---xx   flac  0.4334  wsp2016-12-31d02t01.flac
     8:39.00       91551644 B   ---   --   ---xx   flac  0.5633  wsp2016-12-31d02t02.flac
     6:04.64       64360172 B   ---   --   ---xx   flac  0.5429  wsp2016-12-31d02t03.flac
     9:15.26       97963196 B   ---   --   ---xx   flac  0.5185  wsp2016-12-31d02t04.flac
    11:25.69      120996332 B   ---   --   ---xx   flac  0.5463  wsp2016-12-31d02t05.flac
     6:11.44       65547932 B   ---   --   ---xx   flac  0.5768  wsp2016-12-31d02t06.flac
     4:49.31       51052556 B   ---   --   ---xx   flac  0.5612  wsp2016-12-31d02t07.flac
     4:34.04       48343052 B   ---   --   ---xx   flac  0.5425  wsp2016-12-31d02t08.flac
     5:28.28       57925100 B   ---   --   ---xx   flac  0.5499  wsp2016-12-31d02t09.flac
     1:48.45       19157084 B   ---   --   ---xx   flac  0.3755  wsp2016-12-31d03t01.flac
     0:56.20        9925484 B   ---   --   ---xx   flac  0.4920  wsp2016-12-31d03t02.flac
     4:32.29       48049052 B   ---   --   ---xx   flac  0.4565  wsp2016-12-31d03t03.flac
     0:50.32        8895308 B   ---   --   ---xx   flac  0.4261  wsp2016-12-31d03t04.flac
     6:44.03       71272700 B   ---   --   ---xx   flac  0.5145  wsp2016-12-31d03t05.flac
     7:52.37       83347868 B   ---   --   ---xx   flac  0.5651  wsp2016-12-31d03t06.flac
     6:28.41       68539676 B   ---   --   ---xx   flac  0.5358  wsp2016-12-31d03t07.flac
     6:27.19       68311532 B   ---   --   ---xx   flac  0.5630  wsp2016-12-31d03t08.flac
     7:40.42       81242828 B   ---   --   ---xx   flac  0.5237  wsp2016-12-31d03t09.flac
    10:32.29      111553052 B   ---   --   ---xx   flac  0.5785  wsp2016-12-31d03t10.flac
     6:10.06       65282156 B   ---   --   ---xx   flac  0.4995  wsp2016-12-31d03t11.flac
    10:00.28      105905900 B   ---   --   ---xx   flac  0.5672  wsp2016-12-31d03t12.flac
     4:54.54       51988652 B   ---   --   ---xx   flac  0.5347  wsp2016-12-31d04t01.flac
     6:39.32       70458908 B   ---   --   ---xx   flac  0.5609  wsp2016-12-31d04t02.flac
     0:35.31        6246956 B   ---   --   ---xx   flac  0.3954  wsp2016-12-31d04t03.flac
     7:20.36       77700716 B   ---   --   ---xx   flac  0.5325  wsp2016-12-31d04t04.flac
     5:12.74       55210892 B   ---   --   ---xx   flac  0.5634  wsp2016-12-31d04t05.flac
   196:43.31     2082123652 B                            0.5365  (35 files)








                      





More information about the bittorrent mailing list