[bittorrent] Warren Haynes And The Ashes And Dust Band Bijou Theatre Knoxville, Tennessee 2/28/2016 (Schoeps CCM4V'S FOB)

Automated Mailer noreply-bt.e at etree.org
Mon Feb 29 06:43:31 UTC 2016


Band:           Warren Haynes
Torrent Name:   Warren Haynes And The Ashes And Dust Band  Bijou Theatre Knoxville, Tennessee 2/28/2016 (Schoeps CCM4V'S FOB)
Uploaded by:    zmanatl
DB Link:        
Details:        http://bt.etree.org/details.php?id=585300

Contact the seeder at http://db.etree.org/zmanatl

If the link to this show does not work, it was probably removed for
being non-trade-friendly.

Description / text file:
-------------------------
Warren Haynes And The Ashes And Dust Band
Bijou Theatre
Knoxville, Tennessee
2/28/2016 

Source: Schoeps CCM4V's>Lunatec V2>Benchmark AD2K>
Sound Devices 722 (24/44)
FOB/DFC/KFC/ZFC/AARP Center Section, Row N, Between Seats 15 & 16, 5' High
DSP: Sound Devices 722>Sound Forge 10.0>CD Wave>flac(16)
ID3 Tagged In Foobar 2000
Recorded By: Z-Man
Seeded By: Z-Man

Disc I 

01 Jam
02 All Along The Watchtower >
03 T.M. Jam
04 Is It Me Or You
05 Patchwork Quilt
06 *Skin It Back 
07 Company Man
08 Crazy Fingers
09 Instrumental Illness
10 Times A Revelator

Disc II 

01 Blue Sky
02 Hattiesburg Hustle
03 Stranded In Self Pity
04 Dusk Till Dawn >
05 Drum Solo >
06 Beat Down The Dust
07 Spots Of Time
Encore:
08 Thanks/Band Introductions
09 Jessica

* With Midnight Rider Riffs
# With Tennessee Waltz Jam
@ With Mountain Jam Riffs

Warren Haynes - Guitar And Vocals
Jeff Sipe - Drums
Matt Menefee - Banjo, Guitar, And Vocals
Royal Masat - Bass And Vocals
Ross Holmes - Fiddle And Vocals
Sterling Masat - Mandolin, Banjo, And Guitar

warren2016-02-28d01t01.flac:06cc02c06f9ec6ac3bb4f43737299bb1
warren2016-02-28d01t02.flac:014b539f81e6a457ffeb4065cc891b5a
warren2016-02-28d01t03.flac:16ea3b5b4a9901f67fcbcb6cb7e98adf
warren2016-02-28d01t04.flac:b61afa484cb0982e252e73d2a27a652a
warren2016-02-28d01t05.flac:13ebd6064670f4a5d3d26c55babab85e
warren2016-02-28d01t06.flac:e1dfcc5dbf482c82da03a1948b6d5a74
warren2016-02-28d01t07.flac:6f818abdd19d816e4c46ffd09866c09f
warren2016-02-28d01t08.flac:7e64aae291fa8f707ca6b6dbab4f398f
warren2016-02-28d01t09.flac:b42918839e36ee9d329179b0aed0bf11
warren2016-02-28d01t10.flac:aff05ab161d66d6d9df628a4ed2b19b8
warren2016-02-28d02t01.flac:3b370a7de0507d1ecae60245da6041cb
warren2016-02-28d02t02.flac:4aa7cff174c7726f8100ed90d9b5b59a
warren2016-02-28d02t03.flac:917dabc12457c80972582b0d63f47a28
warren2016-02-28d02t04.flac:5f53388ee1d81eb92649fc94aa32ccba
warren2016-02-28d02t05.flac:f010ce3bbe34eae2626947d4b89ea702
warren2016-02-28d02t06.flac:b9d64bd1f7a50dcc6e3f62b0e2b63e4f
warren2016-02-28d02t07.flac:88236ce5572ad86882010eaad43f4e6a
warren2016-02-28d02t08.flac:4bc7d4a948c17bf01b443ee7f4026a51
warren2016-02-28d02t09.flac:abcd50665769df6b872c3ce36532618a

 length     expanded size    cdr  WAVE problems  fmt   ratio  filename
     1:33.52       16527548 B   ---   --   ---xx   flac  0.3507  warren2016-02-28d01t01.flac
     5:38.26       59684396 B   ---   --   ---xx   flac  0.4962  warren2016-02-28d01t02.flac
     1:39.70       17628284 B   ---   --   ---xx   flac  0.5130  warren2016-02-28d01t03.flac
     5:56.20       62845484 B   ---   --   ---xx   flac  0.4882  warren2016-02-28d01t04.flac
     5:06.44       54081932 B   ---   --   ---xx   flac  0.5010  warren2016-02-28d01t05.flac
    12:04.05      127725404 B   ---   --   ---xx   flac  0.4969  warren2016-02-28d01t06.flac
     5:31.31       58461356 B   ---   --   ---xx   flac  0.4716  warren2016-02-28d01t07.flac
     9:06.24       96370892 B   ---   --   ---xx   flac  0.4927  warren2016-02-28d01t08.flac
    12:11.00      128948444 B   ---   --   ---xx   flac  0.5215  warren2016-02-28d01t09.flac
     8:05.46       85662236 B   ---   --   ---xx   flac  0.4311  warren2016-02-28d01t10.flac
    11:34.01      122423996 B   ---   --   ---xx   flac  0.4863  warren2016-02-28d02t01.flac
     6:47.00       71794844 B   ---   --   ---xx   flac  0.4944  warren2016-02-28d02t02.flac
     8:02.06       85038956 B   ---   --   ---xx   flac  0.4792  warren2016-02-28d02t03.flac
    12:13.02      129305948 B   ---   --   ---xx   flac  0.5063  warren2016-02-28d02t04.flac
     4:24.33       46647260 B   ---   --   ---xx   flac  0.4625  warren2016-02-28d02t05.flac
     4:55.32       52113308 B   ---   --   ---xx   flac  0.5491  warren2016-02-28d02t06.flac
     9:35.14      101462972 B   ---   --   ---xx   flac  0.5409  warren2016-02-28d02t07.flac
     2:08.35       22661564 B   ---   --   ---xx   flac  0.4303  warren2016-02-28d02t08.flac
    13:51.44      146691932 B   ---   --   ---xx   flac  0.4874  warren2016-02-28d02t09.flac
   140:24.35     1486076756 B                            0.4929  (19 files)









More information about the bittorrent mailing list