[bittorrent] plf2016-02-27.stankiewicz.flac1644

Automated Mailer noreply-bt.e at etree.org
Sun Feb 28 20:44:51 UTC 2016


Band:           Phil Lesh & Friends
Torrent Name:   plf2016-02-27.stankiewicz.flac1644
Uploaded by:    nfagdtrfb
DB Link:        
Details:        http://bt.etree.org/details.php?id=585287

Contact the seeder at http://db.etree.org/nfagdtrfb

If the link to this show does not work, it was probably removed for
being non-trade-friendly.

Description / text file:
-------------------------
PHIL LESH & FRIENDS
Brooklyn Bowl
Las Vegas NV
02-27-2016

16bit/44.1kHz file-set

s1t01 intro jam
s1t02 Here Comes the Sun
s1t03 Cassidy
s1t04 Birdsong
s1t05 Uncle John's Band
s1t06 Blue Sky
s1t07 Cumberland Blues

s2t01 intro jam
s2t02 The Golden Road
s2t03 Viola Lee Blues
s2t04 Shakedown Street
s2t05 Me & Bobby McGee
s2t06 Playin' in the Band
s2t07 Dark Star
s2t08 Unbroken Chain
s2t09 Yesterday instrumental
s2t10 I Know You Rider
s2t11 bobby public speaking lesson
s2t12 Amazing Grace
s2t13 Box of Rain
s2t14 band intros

Jason Crosby
Stanley Jordan
John Kadlecik
Phil Lesh
John Molo
Boyd Tinsley
-with
Nicki Bluhm
Andy Falco
Andy Hall
Alex Koford
Graham Lesh

4-mic mix:
DPA-4021's > Lunatec V2 > SD-422.
DPA-4061's > SD-422.
SD-422 > SD-722 > WAV 2496.
Mics on 8-foot stand in the FOB sweet spot.
Concert recording by Richie Stankiewicz.

WAV 2496 > Wavelab (adjust levels, add fades) > CD-Wave 24bit output > R8Brain > TLH > FLAC 1644 tagged.

    length     expanded size    cdr  WAVE problems  fmt   ratio  filename
     1:02.44       11040332 B   ---   --   ---xx   flac  0.4303  plf2016-02-27s1t01.flac
     4:04.26       43102796 B   ---   --   ---xx   flac  0.5103  plf2016-02-27s1t02.flac
    11:44.17      124225628 B   ---   --   ---xx   flac  0.5345  plf2016-02-27s1t03.flac
    13:46.72      145875788 B   ---   --   ---xx   flac  0.5228  plf2016-02-27s1t04.flac
    14:28.38      153204620 B   ---   --   ---xx   flac  0.5525  plf2016-02-27s1t05.flac
     9:14.30       97796204 B   ---   --   ---xx   flac  0.5542  plf2016-02-27s1t06.flac
     9:43.54      102968252 B   ---   --   ---xx   flac  0.5669  plf2016-02-27s1t07.flac
     1:30.15       15911324 B   ---   --   ---xx   flac  0.4163  plf2016-02-27s2t01.flac
    11:24.19      120702332 B   ---   --   ---xx   flac  0.5493  plf2016-02-27s2t02.flac
    12:15.19      129698732 B   ---   --   ---xx   flac  0.5525  plf2016-02-27s2t03.flac
    15:16.13      161613020 B   ---   --   ---xx   flac  0.5574  plf2016-02-27s2t04.flac
     5:48.43       61488380 B   ---   --   ---xx   flac  0.5287  plf2016-02-27s2t05.flac
    12:49.12      135679868 B   ---   --   ---xx   flac  0.5622  plf2016-02-27s2t06.flac
    11:27.24      121243292 B   ---   --   ---xx   flac  0.5333  plf2016-02-27s2t07.flac
    14:21.15      151915724 B   ---   --   ---xx   flac  0.5289  plf2016-02-27s2t08.flac
     9:50.56      104207756 B   ---   --   ---xx   flac  0.4214  plf2016-02-27s2t09.flac
    12:18.13      130213820 B   ---   --   ---xx   flac  0.5483  plf2016-02-27s2t10.flac
     4:28.45       47381084 B   ---   --   ---xx   flac  0.3891  plf2016-02-27s2t11.flac
     7:31.42       79655228 B   ---   --   ---xx   flac  0.4273  plf2016-02-27s2t12.flac
    10:08.45      107357084 B   ---   --   ---xx   flac  0.5460  plf2016-02-27s2t13.flac
     3:09.51       33459596 B   ---   --   ---xx   flac  0.5188  plf2016-02-27s2t14.flac
   196:24.18     2078740860 B                            0.5286  (21 files)

No errors occured.




More information about the bittorrent mailing list