[bittorrent] Randall Bramblett Band A Town Get Down Charles Morris Center Savannah, Georgia 2/27/2016 (Schoeps CCM4V'S FOB)

Automated Mailer noreply-bt.e at etree.org
Sun Feb 28 07:00:07 UTC 2016


Band:           Other
Torrent Name:   Randall Bramblett Band A Town Get Down Charles Morris Center Savannah, Georgia 2/27/2016 (Schoeps CCM4V'S FOB)
Uploaded by:    zmanatl
DB Link:        
Details:        http://bt.etree.org/details.php?id=585272

Contact the seeder at http://db.etree.org/zmanatl

If the link to this show does not work, it was probably removed for
being non-trade-friendly.

Description / text file:
-------------------------
Randall Bramblett Band
A Town Get Down
Charles Morris Center
Savannah, Georgia
2/27/2016 

Source: Schoeps CCM4V's>Lunatec V2>Benchmark AD2K>
Sound Devices 722 (24/44)
FOB/DFC/KFC/ZFC/AARP 25' From Stage, 6 1/2' High
DSP: Sound Devices 722>Sound Forge 10.0>CD Wave>flac(16)
ID3 Tagged In Foobar 2000
Recorded By: Z-Man
Seeded By: Z-Man

Disc I 

01 Announcements And Introductio
02 Reptile
03 Blue Road
04 Dead In The Water
05 Devil Music
06 Bottom Of The Sea
07 Angel Child
08 Drivin' To Montgomery
09 I Dreamed I Saw John The Baptist Looking For Jesus
10 We Used To Rule The World
11 Everybody's Got To Roll

randall2016-02-27d01t01.flac:2effcc8a42d613e0cddbb6eb6b46e8e7
randall2016-02-27d01t02.flac:bb01bba0ebb0a4912cc77d831729464b
randall2016-02-27d01t03.flac:e9e31d94053f6e88c8d2fab8771356d9
randall2016-02-27d01t04.flac:b2e9b1c1ca867a2a9002fbf23cabd38a
randall2016-02-27d01t05.flac:4329ab1486add3ded5ec1e93670b2852
randall2016-02-27d01t06.flac:082a30e110b761f469cc5c0cea7f6034
randall2016-02-27d01t07.flac:ec92a1b7319bc02fb60f4f55cd43ffb2
randall2016-02-27d01t08.flac:f13da9fb692515a9f3ef40a40dd571d3
randall2016-02-27d01t09.flac:40b6d3bacb1823e90b2fb02acffcb983
randall2016-02-27d01t10.flac:efe461d8121c171a09ae347c25d86b6c
randall2016-02-27d01t11.flac:47b44b99b054819c173b32b1a4e3ef2a

 length     expanded size    cdr  WAVE problems  fmt   ratio  filename
     1:54.21       20159036 B   ---   --   ---xx   flac  0.3729  randall2016-02-27d01t01.flac
     4:59.19       52788332 B   ---   --   ---xx   flac  0.5559  randall2016-02-27d01t02.flac
     6:27.06       68280956 B   ---   --   ---xx   flac  0.5631  randall2016-02-27d01t03.flac
     4:24.41       46666076 B   ---   --   ---xx   flac  0.5744  randall2016-02-27d01t04.flac
     5:56.24       62854892 B   ---   --   ---xx   flac  0.5708  randall2016-02-27d01t05.flac
     4:46.62       50596268 B   ---   --   ---xx   flac  0.5735  randall2016-02-27d01t06.flac
     5:55.51       62741996 B   ---   --   ---xx   flac  0.5731  randall2016-02-27d01t07.flac
     4:58.45       52673084 B   ---   --   ---xx   flac  0.5376  randall2016-02-27d01t08.flac
     9:23.18       99355580 B   ---   --   ---xx   flac  0.5891  randall2016-02-27d01t09.flac
     4:50.37       51243068 B   ---   --   ---xx   flac  0.5945  randall2016-02-27d01t10.flac
     5:58.12       63179468 B   ---   --   ---xx   flac  0.5951  randall2016-02-27d01t11.flac
    59:34.36      630538756 B                            0.5676  (11 files)













More information about the bittorrent mailing list