[bittorrent] plf2016-02-26.stankiewicz.flac1644

Automated Mailer noreply-bt.e at etree.org
Sun Feb 28 00:05:47 UTC 2016


Band:           Phil Lesh & Friends
Torrent Name:   plf2016-02-26.stankiewicz.flac1644
Uploaded by:    nfagdtrfb
DB Link:        
Details:        http://bt.etree.org/details.php?id=585270

Contact the seeder at http://db.etree.org/nfagdtrfb

If the link to this show does not work, it was probably removed for
being non-trade-friendly.

Description / text file:
-------------------------
PHIL LESH & FRIENDS
Brooklyn Bowl
Las Vegas NV
02-26-2016

16bit/44.1kHz file-set

s1t01 intro jam
s1t02 Mason's Children
s1t03 Fire on the Mountain
s1t04 The Other One
s1t05 Cosmic Charlie
s1t06 Eleanor Rigby instrumental
s1t07 Franklin's Tower

s2t01 intro jam
s2t02 All Along the Watchtower
s2t03 Let it Grow
s2t04 Stairway to Heaven instrumental
s2t05 Saint Stephen
s2t06 Morning Dew
s2t07 Lucy in the Sky with Diamonds
s2t08 Somewhere Over the Rainbow instrumental
s2t09 Touch of Grey
s2t10 we love Cody & Phil
s2t11 Not Fade Away
s2t12 band intros

Jason Crosby
Stanley Jordan
John Kadlecik
Phil Lesh
John Molo
Boyd Tinsley
-with
Alex Koford
Graham Lesh

4-mic mix:
DPA-4021's > Lunatec V2 > SD-422.
DPA-4061's > SD-422.
SD-422 > SD-722 > WAV 2496.
Mics on stand in the FOB sweet spot, 7-foot Set One, 8-foot Set Two.
Concert recording by Richie Stankiewicz.

WAV 2496 > Wavelab (adjust levels, add fades) > CD-Wave 24bit output > R8Brain > TLH > FLAC 1644 tagged.

    length     expanded size    cdr  WAVE problems  fmt   ratio  filename
     4:43.14       49954172 B   ---   --   ---xx   flac  0.5037  plf2016-02-26s1t01.flac
     8:48.34       93219212 B   ---   --   ---xx   flac  0.5405  plf2016-02-26s1t02.flac
    12:57.49      137178092 B   ---   --   ---xx   flac  0.5350  plf2016-02-26s1t03.flac
     9:42.31      102737756 B   ---   --   ---xx   flac  0.5302  plf2016-02-26s1t04.flac
     9:15.53       98026700 B   ---   --   ---xx   flac  0.4894  plf2016-02-26s1t05.flac
    12:13.06      129315356 B   ---   --   ---xx   flac  0.4960  plf2016-02-26s1t06.flac
    14:09.02      149768348 B   ---   --   ---xx   flac  0.5572  plf2016-02-26s1t07.flac
     2:37.24       27751292 B   ---   --   ---xx   flac  0.4354  plf2016-02-26s2t01.flac
    12:31.70      132641084 B   ---   --   ---xx   flac  0.5351  plf2016-02-26s2t02.flac
    20:43.15      219300524 B   ---   --   ---xx   flac  0.5374  plf2016-02-26s2t03.flac
    11:38.30      123197804 B   ---   --   ---xx   flac  0.4933  plf2016-02-26s2t04.flac
    13:02.71      138111836 B   ---   --   ---xx   flac  0.5787  plf2016-02-26s2t05.flac
    12:27.68      131930780 B   ---   --   ---xx   flac  0.5053  plf2016-02-26s2t06.flac
     5:08.29       54399452 B   ---   --   ---xx   flac  0.5110  plf2016-02-26s2t07.flac
     8:00.37       84759068 B   ---   --   ---xx   flac  0.4088  plf2016-02-26s2t08.flac
    11:13.55      118846604 B   ---   --   ---xx   flac  0.5365  plf2016-02-26s2t09.flac
     2:56.20       31093484 B   ---   --   ---xx   flac  0.4269  plf2016-02-26s2t10.flac
    15:39.25      165698444 B   ---   --   ---xx   flac  0.5474  plf2016-02-26s2t11.flac
     1:26.70       15335084 B   ---   --   ---xx   flac  0.5356  plf2016-02-26s2t12.flac
   189:16.28     2003265092 B                            0.5220  (19 files)

No errors occured.




More information about the bittorrent mailing list