[bittorrent] moe. - 2016-02-26 - Rams Head Live - Baltimore, MD - DPA 4011 > V3 > R44 **1644**

Automated Mailer noreply-bt.e at etree.org
Sat Feb 27 22:08:11 UTC 2016


Band:           moe.
Torrent Name:   moe. - 2016-02-26 - Rams Head Live - Baltimore, MD - DPA 4011 > V3 > R44 **1644**
Uploaded by:    bvaz
DB Link:        
Details:        http://bt.etree.org/details.php?id=585268

Contact the seeder at http://db.etree.org/bvaz

If the link to this show does not work, it was probably removed for
being non-trade-friendly.

Description / text file:
-------------------------
moe.
2016-02-26
Best Buy Theater
New York, NY

DPA 4011 > V3 Digital > R44 (24/96)
SDHC Card > Sound Forge Pro 2.5 (fades, Normalize, tracking, resample iZotope 64-Bit SRC, dither iZotope MBIT+ Dither) > xAct (Flac level 8, tagging, fix SBE)
DIN/DFC/clamped to balcony

Taped and Transferred by Brian V.

Set 1

01. Not Coming Down >
02. Wormwood
03. 32 Things
04. Canned Pastries
05. Nebraska
06. The Road >
07. Timmy Tucker

Set 2

01. intro
02. Happy Hour Hero%
03. Mar-Deme >
04. Defrost >
05. Akimbo
06. So Long (nh)
07. Spine of a Dog >
08. Buster
09. encore break
10. al.nouncements
11. Shrunk >
12. Head

% with Cris Jacobs on guitar

***Support Bands That Allow Taping/Trading***

shntool output
    length     expanded size    cdr  WAVE problems  fmt   ratio  filename
     4:18.37       45598268 B   ---   --   -----    wav  1.0000  moe2016-02-26s1t01.wav
    11:41.09      123677612 B   ---   --   -----    wav  1.0000  moe2016-02-26s1t02.wav
    14:46.39      156382172 B   ---   --   -----    wav  1.0000  moe2016-02-26s1t03.wav
    13:30.16      142921676 B   ---   --   -----    wav  1.0000  moe2016-02-26s1t04.wav
     5:32.49       58680092 B   ---   --   -----    wav  1.0000  moe2016-02-26s1t05.wav
    16:35.14      175550972 B   ---   --   -----    wav  1.0000  moe2016-02-26s1t06.wav
    22:17.02      235851548 B   ---   --   -----    wav  1.0000  moe2016-02-26s1t07.wav
     1:22.22       14516588 B   ---   --   -----    wav  1.0000  moe2016-02-26s2t01.wav
    10:05.59      106860812 B   ---   --   -----    wav  1.0000  moe2016-02-26s2t02.wav
     5:27.31       57755756 B   ---   --   -----    wav  1.0000  moe2016-02-26s2t03.wav
     0:32.61        5788316 B   ---   --   -----    wav  1.0000  moe2016-02-26s2t04.wav
     9:22.59       99275612 B   ---   --   -----    wav  1.0000  moe2016-02-26s2t05.wav
    14:41.36      155493116 B   ---   --   -----    wav  1.0000  moe2016-02-26s2t06.wav
    12:51.58      136140860 B   ---   --   -----    wav  1.0000  moe2016-02-26s2t07.wav
    13:10.61      139499516 B   ---   --   -----    wav  1.0000  moe2016-02-26s2t08.wav
     4:08.53       43871900 B   ---   --   -----    wav  1.0000  moe2016-02-26s2t09.wav
     3:06.04       32819852 B   ---   --   -----    wav  1.0000  moe2016-02-26s2t10.wav
    14:10.27      150003548 B   ---   --   -----    wav  1.0000  moe2016-02-26s2t11.wav
    12:22.08      130907660 B   ---   --   -----    wav  1.0000  moe2016-02-26s2t12.wav
   190:03.45     2011595876 B                            1.0000  (19 files)



More information about the bittorrent mailing list