[bittorrent] jgb1975-10-28.early.aud.xxxxxx.flac1644

Automated Mailer noreply-bt.e at etree.org
Sat Feb 27 13:21:23 UTC 2016


Band:           Garcia
Torrent Name:   jgb1975-10-28.early.aud.xxxxxx.flac1644
Uploaded by:    nfagdtrfb
DB Link:        
Details:        http://bt.etree.org/details.php?id=585263

Contact the seeder at http://db.etree.org/nfagdtrfb

If the link to this show does not work, it was probably removed for
being non-trade-friendly.

Description / text file:
-------------------------
JERRY GARCIA BAND
Beacon Theater
New York NY
10-28-1975
Early Show

01 John Scher intro
02 Sugaree
03 Catfish John
04 All By Myself
05 Mission in the Rain
06 Lady Sleeps
07 No Time//
08 Friend of the Devil
09 The Night They Drove Old Dixie Down
10 Let it Rock
11 Russian Lullaby
12 How Sweet It Is
13 Let's Spend the Night Together
xx [missing] Edward the Mad Shirt Grinder

Source: AUD of unknown lineage, rescued from ebay for five bucks.

Transfer: Maxell XLI (normal bias) > Nakamichi CR-5A (Dolby off) > 
Edirol FA-66 > Wavelab 2448 > R8Brain > CD-Wave > TLH > FLAC 1644 
tagged. Transferred by Andrew F. 02/2016

Note: Tight edits between songs. No Time cuts out at the end. Jam 
after Let's Spend the Night Together is complete, it appears the 
band is preparing to start into Edward as the tape runs out.

    length     expanded size    cdr  WAVE problems  fmt   ratio  filename
     0:26.54        4713452 B   ---   --   ---xx   flac  0.5543  jgb1975-10-28t01.flac
     7:39.00       80967644 B   ---   --   ---xx   flac  0.5661  jgb1975-10-28t02.flac
     8:45.28       92675900 B   ---   --   ---xx   flac  0.5579  jgb1975-10-28t03.flac
     6:28.62       68589068 B   ---   --   ---xx   flac  0.5597  jgb1975-10-28t04.flac
     6:22.17       67424828 B   ---   --   ---xx   flac  0.5546  jgb1975-10-28t05.flac
     3:22.65       35785724 B   ---   --   ---xx   flac  0.5343  jgb1975-10-28t06.flac
     4:08.47       43857788 B   ---   --   ---xx   flac  0.5498  jgb1975-10-28t07.flac
     5:34.59       59056412 B   ---   --   ---xx   flac  0.5628  jgb1975-10-28t08.flac
     9:08.26       96728396 B   ---   --   ---xx   flac  0.5647  jgb1975-10-28t09.flac
     8:23.64       88879772 B   ---   --   ---xx   flac  0.5654  jgb1975-10-28t10.flac
     7:51.06       83098556 B   ---   --   ---xx   flac  0.5589  jgb1975-10-28t11.flac
     7:37.18       80657180 B   ---   --   ---xx   flac  0.5760  jgb1975-10-28t12.flac
    12:08.15      128454524 B   ---   --   ---xx   flac  0.5710  jgb1975-10-28t13.flac
    87:57.11      930889244 B                            0.5624  (13 files)

No errors occured.




More information about the bittorrent mailing list