[bittorrent] Widespread Panic Savannah Civic Center Savannah, Georgia 2/26/2016 (Schoeps CCM4V'S FOB)

Automated Mailer noreply-bt.e at etree.org
Sat Feb 27 07:26:47 UTC 2016


Band:           Widespread Panic
Torrent Name:   Widespread Panic Savannah Civic Center Savannah, Georgia 2/26/2016 (Schoeps CCM4V'S FOB)
Uploaded by:    zmanatl
DB Link:        
Details:        http://bt.etree.org/details.php?id=585261

Contact the seeder at http://db.etree.org/zmanatl

If the link to this show does not work, it was probably removed for
being non-trade-friendly.

Description / text file:
-------------------------
Widespread Panic
Savannah Civic Center
Savannah, Georgia
2/26/2016 

Source: Schoeps CCM4V's>Lunatec V2>Benchmark AD2K>
Sound Devices 722 (24/44)
FOB/DFC/KFC/ZFC/AARP 46' From Stage, 7 1/2' High
DSP: Sound Devices 722>Sound Forge 10.0>CD Wave>flac(16)
ID3 Tagged In Foobar 2000
Recorded By: Z-Man
Seeded By: Z-Man

Disc I 1st Set

01 Greeting
03 A Of D >
03 The Last Straw >
04 Up All Night 
05 Sell Sell Sell
06 Bust It Big
07 First We Take Manhattan 
08 Tail Dragger >
09 Rock 
10 Bowl Legged Woman >
11 Blackout Blues

Disc II 2nd Set 

01 JB Banter
03 Hard Rain's A Gonna Fall 
03 Drivin' Song >
04 Tie Your Shoes >
05 Low Spark Of High-Heeled Boys >
06 *Arlene >
07 Papa's Home >
08 Drum Solo >

Disc III 2nd Set Con't

01 Papa's Home >
02 Red Hot Mama >
03 #Low Spark Of High-Heeled Boys >
04 Drivin' Song >
05 Chilly Water
06 Flat Foot Flewzy
Encore:
07 Dave Banter
08 Lawyers, Guns, & Money >
09 Porch Song
10 I Can See Clearly Now

* With Junior And Good Morning Little Schoolgirl Lyrics
# With Arlene Lyrics In The Beginning

wsp2016-02-26d01t01.flac:bfd028ead181b0c6500fefe3fb69dd37
wsp2016-02-26d01t02.flac:6fca7c15e6d5ff9457d8fec987dfaedf
wsp2016-02-26d01t03.flac:4902d35341f50fc2ed9dfd992e62a56a
wsp2016-02-26d01t04.flac:312440342a31d285c0f733ab5820aaf1
wsp2016-02-26d01t05.flac:253785bf56a87cc82992e922d0fa5c57
wsp2016-02-26d01t06.flac:e14b1e274bb91b9672ed7a7397d03d8f
wsp2016-02-26d01t07.flac:312137a50931fd3a105c9937e131a879
wsp2016-02-26d01t08.flac:f886b55aa9d8db3055ecb8927f9a53e1
wsp2016-02-26d01t09.flac:164509ed4eddd28594cb6f17164cf333
wsp2016-02-26d01t10.flac:282749d4d2115a6d667e91cc078fc8ca
wsp2016-02-26d01t11.flac:5813c53e8186f15371176eaaedd1689f
wsp2016-02-26d02t01.flac:6611f6b77905deede1f3b64e923f480c
wsp2016-02-26d02t02.flac:6487e52a7c6ee19b4e3b1ca75f14ed3d
wsp2016-02-26d02t03.flac:f8757738262e4a80fae060dccfa618d4
wsp2016-02-26d02t04.flac:0d9abbb14efa8405ab53281adc2543cb
wsp2016-02-26d02t05.flac:d3c415a33433a54afceb892cc8419296
wsp2016-02-26d02t06.flac:347854a3a35d5ba0a14714218ecfd0c2
wsp2016-02-26d02t07.flac:27c309fb092c8f47be16f40816317459
wsp2016-02-26d02t08.flac:6f526f0bbd6037c199ec831b24f74536
wsp2016-02-26d03t01.flac:4440f835db24e7fbc137e2111580e1f2
wsp2016-02-26d03t02.flac:ddf03fff1e512acc9edb038b2ef9c44c
wsp2016-02-26d03t03.flac:2b05655fe99b57a0cbeca92f7502d29c
wsp2016-02-26d03t04.flac:e156c629a7fb1cb79f2058d08e0c18cc
wsp2016-02-26d03t05.flac:25837962e4e126a0fadd2aa4560c39ec
wsp2016-02-26d03t06.flac:24778648971f98e13bbc137cfbcde1c2
wsp2016-02-26d03t07.flac:952af2a1b12579a2dd68610db39d2784
wsp2016-02-26d03t08.flac:3dce89975edbbad6d540dba080f7301a
wsp2016-02-26d03t09.flac:96a973168144d2c67b83943b58e76baf
wsp2016-02-26d03t10.flac:fa7afd5d017cd47f3f946fec012c5d4f

  length     expanded size    cdr  WAVE problems  fmt   ratio  filename
     0:52.01        9175196 B   ---   --   ---xx   flac  0.4310  wsp2016-02-26d01t01.flac
     3:07.54       33113852 B   ---   --   ---xx   flac  0.5123  wsp2016-02-26d01t02.flac
     6:59.01       73913996 B   ---   --   ---xx   flac  0.5039  wsp2016-02-26d01t03.flac
     7:00.62       74233868 B   ---   --   ---xx   flac  0.5370  wsp2016-02-26d01t04.flac
     7:03.30       74687804 B   ---   --   ---xx   flac  0.5524  wsp2016-02-26d01t05.flac
    11:48.48      125004140 B   ---   --   ---xx   flac  0.5345  wsp2016-02-26d01t06.flac
     8:08.12       86111468 B   ---   --   ---xx   flac  0.5294  wsp2016-02-26d01t07.flac
     4:38.15       49074524 B   ---   --   ---xx   flac  0.5363  wsp2016-02-26d01t08.flac
     8:02.38       85114220 B   ---   --   ---xx   flac  0.5121  wsp2016-02-26d01t09.flac
     8:56.28       94616300 B   ---   --   ---xx   flac  0.5355  wsp2016-02-26d01t10.flac
     8:07.63       86055020 B   ---   --   ---xx   flac  0.5311  wsp2016-02-26d01t11.flac
     0:15.13        2676620 B   ---   --   ---xx   flac  0.3701  wsp2016-02-26d02t01.flac
     8:02.39       85116572 B   ---   --   ---xx   flac  0.5291  wsp2016-02-26d02t02.flac
     4:24.40       46663724 B   ---   --   ---xx   flac  0.5315  wsp2016-02-26d02t03.flac
    10:47.10      114154364 B   ---   --   ---xx   flac  0.5321  wsp2016-02-26d02t04.flac
     9:42.18      102707180 B   ---   --   ---xx   flac  0.5121  wsp2016-02-26d02t05.flac
    11:56.43      126403580 B   ---   --   ---xx   flac  0.5589  wsp2016-02-26d02t06.flac
     8:55.55       94503404 B   ---   --   ---xx   flac  0.5478  wsp2016-02-26d02t07.flac
    11:21.64      120278972 B   ---   --   ---xx   flac  0.4680  wsp2016-02-26d02t08.flac
     1:47.08       18893660 B   ---   --   ---xx   flac  0.5722  wsp2016-02-26d03t01.flac
     6:47.49       71910092 B   ---   --   ---xx   flac  0.5700  wsp2016-02-26d03t02.flac
     9:24.64       99640172 B   ---   --   ---xx   flac  0.4981  wsp2016-02-26d03t03.flac
     2:49.13       29842220 B   ---   --   ---xx   flac  0.5428  wsp2016-02-26d03t04.flac
    10:19.63      109339820 B   ---   --   ---xx   flac  0.5704  wsp2016-02-26d03t05.flac
     5:01.10       53119964 B   ---   --   ---xx   flac  0.5858  wsp2016-02-26d03t06.flac
     0:32.62        5790668 B   ---   --   ---xx   flac  0.4587  wsp2016-02-26d03t07.flac
     3:35.15       37961324 B   ---   --   ---xx   flac  0.5585  wsp2016-02-26d03t08.flac
     5:30.36       58296716 B   ---   --   ---xx   flac  0.5591  wsp2016-02-26d03t09.flac
     7:17.15       77122124 B   ---   --   ---xx   flac  0.5551  wsp2016-02-26d03t10.flac
   193:15.69     2045521564 B                            0.5335  (29 files)









More information about the bittorrent mailing list