[bittorrent] John McKnight Blues Jam Darwin's Burgers And Blues Marietta, Georgia 2/24/2016 (Schoeps CCM4V'S FOB)

Automated Mailer noreply-bt.e at etree.org
Thu Feb 25 04:17:23 UTC 2016


Band:           Other
Torrent Name:   John McKnight Blues Jam Darwin's Burgers And Blues Marietta, Georgia 2/24/2016 (Schoeps CCM4V'S FOB)
Uploaded by:    zmanatl
DB Link:        
Details:        http://bt.etree.org/details.php?id=585243

Contact the seeder at http://db.etree.org/zmanatl

If the link to this show does not work, it was probably removed for
being non-trade-friendly.

Description / text file:
-------------------------
John McKnight Blues Jam
Darwin's Burgers And Blues
Marietta, Georgia
2/24/2016 

Source: Schoeps CCM4V's>Lunatec V2>Benchmark AD2K>
Sound Devices 722 (24/44)
FOB/DFC/KFC/ZFC/AARP Stage Lip, 6 1/2' High
DSP: Sound Devices 722>Sound Forge 10.0>CD Wave>flac(16)
ID3 Tagged In Foobar 2000
Recorded By: Z-Man
Seeded By: Z-Man

Disc I 

01 Greeting
02 Who's Been Talkin'
03 Moanin' >
04 ?
05 ?
06 Give Five
07 Roll Over DB 
08 Cherokee
 
John McKnight - Drums And Vocals 
Barry Richman - Guitar
Joel Edwards - Bass 
 
john2016-02-24d01t01.flac:a075f0a1b262618a3ff2bac52dfc36ce
john2016-02-24d01t02.flac:1c4acba60c73d8aee649f2df7e5c1b4c
john2016-02-24d01t03.flac:9547d7b74c9e1bd7dd2b198af9deae6c
john2016-02-24d01t04.flac:00f236249482f42370735733132e75fc
john2016-02-24d01t05.flac:f9297d4fed6a1466b92ad4745baa9f8e
john2016-02-24d01t06.flac:ac7ffbec8998a9f2a9c375f341747562
john2016-02-24d01t07.flac:239415320cd07e56ed86d62544cda024
john2016-02-24d01t08.flac:1bcf68b7c066f5345df29b0a1f739400

 length     expanded size    cdr  WAVE problems  fmt   ratio  filename
     0:37.57        6660908 B   ---   --   ---xx   flac  0.3126  john2016-02-24d01t01.flac
     5:02.35       53355164 B   ---   --   ---xx   flac  0.5084  john2016-02-24d01t02.flac
     5:23.72       57146588 B   ---   --   ---xx   flac  0.4856  john2016-02-24d01t03.flac
     8:51.03       93675500 B   ---   --   ---xx   flac  0.5434  john2016-02-24d01t04.flac
     8:42.55       92210204 B   ---   --   ---xx   flac  0.4915  john2016-02-24d01t05.flac
     9:55.29      105026252 B   ---   --   ---xx   flac  0.5218  john2016-02-24d01t06.flac
     3:56.16       41668076 B   ---   --   ---xx   flac  0.4614  john2016-02-24d01t07.flac
     5:17.12       55947068 B   ---   --   ---xx   flac  0.5246  john2016-02-24d01t08.flac
    47:46.54      505689760 B                            0.5073  (8 files)

















More information about the bittorrent mailing list