[bittorrent] gd1993-03-16.mtx.tobin.135257.flac16

Automated Mailer noreply-bt.e at etree.org
Wed Feb 24 20:20:24 UTC 2016


Band:           Grateful Dead
Torrent Name:   gd1993-03-16.mtx.tobin.135257.flac16
Uploaded by:    greendude
DB Link:        http://db.etree.org/shn/135257
Details:        http://bt.etree.org/details.php?id=585225

Contact the seeder at http://db.etree.org/greendude

If the link to this show does not work, it was probably removed for
being non-trade-friendly.

Description / text file:
-------------------------
-----THANKS TO KEVTOBIN FOR SHARING-----


Grateful Dead 
Capital Centre,
Landover, MD
March 16, 1993

SBD + AUD Matrix 2 Source Mix(48%-SBD/52%-AUD)

Set 1:
d1t01 - Jack Straw
d1t02 - Row Jimmy
d1t03 - New Minglewood Blues
d1t04 - So Many Roads
d1t05 - Cassidy
d1t06 - Tennessee Jed ->
d1t07 - Promised Land

Set 2:
d2t01 - Scarlet Begonias ->
d2t02 - Fire On The Mountain
d2t03 - Man Smart (Woman Smarter)
d2t04 - Uncle John's Band ->
d2t05 - Drums ->
d3t01 - Space ->
d3t02 - The Last Time ->
d3t03 - Morning Dew ->
d3t04 - Sugar Magnolia

Encore:
d3t05 - U.S. Blues

Audio Information:
Original SBD (shnid=120741)

Recording Info:
SBD -> Master Dat (44.1k)

Transfer Info:
Master Dat (Tascam DA-20) -> Tascam SS-R05 -> Samplitude Professional v11.1 -> FLAC
(3 Discs Audio / 1 DVD FLAC)

All Transfers and Mastering By Charlie Miller
charliemiller87 at earthlink.net
June 15, 2012

Notes:
-- Set 2 is seamless

Original AUD (shnid=85173)

Lineage:
AKG 460/CK8's -> Panasonic SV-255 -> (clone) TEAC DA-P20
Transfer:
Tascam DA-30 (48k) --[coaxial S/PDIF]--> Diamond xTreme Sound Card (48k)
48k->44.1 in Cool Edit Pro, tracked with CDWave, FLAC level 8 encoded

Taper(s): Scott Swayne, Roger Jones, and Joe
Transfer: Scott Swayne (altheasboy) in 05/07

---------------------------------------------------------
- Mixed by kevtobin at yahoo.com
- FLAC conversion 06-FEB-2016 - Trader Little Helper
- Tagged 06-FEB-2016 - Tag&Rename
---------------------------------------------------------
Multitrack Mixdown Settings

SET ONE

Stereo Matrix
SBD 0
AUD 1

SET TWO

Stereo Matrix
SBD 0
AUD 1
---------------------------------------------------------

Brokedown House Production

    length     expanded size    cdr  WAVE problems  fmt   ratio  filename
     7:21.947      84853804 B   cxx   --   -----    wav  1.0000  gd1993-03-16d1t01.wav
    10:33.653     121661484 B   cxx   --   -----    wav  1.0000  gd1993-03-16d1t02.wav
     8:25.027      96965164 B   cxx   --   -----    wav  1.0000  gd1993-03-16d1t03.wav
     8:03.227      92779564 B   cxx   --   -----    wav  1.0000  gd1993-03-16d1t04.wav
     7:58.867      91942444 B   cxx   --   -----    wav  1.0000  gd1993-03-16d1t05.wav
     7:49.600      90163244 B   cxx   --   -----    wav  1.0000  gd1993-03-16d1t06.wav
     4:31.800      52185644 B   cxx   --   -----    wav  1.0000  gd1993-03-16d1t07.wav
     8:30.32       90039308 B   ---   --   -----    wav  1.0000  gd1993-03-16d2t01.wav
    13:01.43      137869580 B   ---   --   -----    wav  1.0000  gd1993-03-16d2t02.wav
     8:25.34       89162012 B   ---   --   -----    wav  1.0000  gd1993-03-16d2t03.wav
    13:54.19      147162332 B   ---   --   -----    wav  1.0000  gd1993-03-16d2t04.wav
     9:40.19      102356732 B   ---   --   -----    wav  1.0000  gd1993-03-16d2t05.wav
     9:39.30      102206204 B   ---   --   -----    wav  1.0000  gd1993-03-16d3t01.wav
     6:37.39       70122572 B   ---   --   -----    wav  1.0000  gd1993-03-16d3t02.wav
    11:29.65      121692524 B   ---   --   -----    wav  1.0000  gd1993-03-16d3t03.wav
    12:01.17      127224428 B   ---   --   -----    wav  1.0000  gd1993-03-16d3t04.wav
     5:20.14       56480972 B   ---   --   -----    wav  1.0000  gd1993-03-16d3t05.wav
   153:24.280    1674868012 B                            1.0000  (17 files)





More information about the bittorrent mailing list