[bittorrent] gd1990-03-25.135267.sbd.miller.flac16

Automated Mailer noreply-bt.e at etree.org
Wed Feb 24 20:17:08 UTC 2016


Band:           Grateful Dead
Torrent Name:   gd1990-03-25.135267.sbd.miller.flac16
Uploaded by:    greendude
DB Link:        http://db.etree.org/shn/135267
Details:        http://bt.etree.org/details.php?id=585224

Contact the seeder at http://db.etree.org/greendude

If the link to this show does not work, it was probably removed for
being non-trade-friendly.

Description / text file:
-------------------------
-----THANKS TO CHARLIE FOR SHARING-----


Grateful Dead - March 25, 1990
Knickerbocker Arena - Albany, NY

Recording Info:
SBD -> Dat -> Cassette Master (TDK MA-R90)

Transfer Info:
Cassette Master (Nakamichi DR-1) -> Apogee MiniMe (24bit/48k) ->
Samplitude Professional v9.11 -> Adobe Audition CS6 -> FLAC/16
(2 Discs Audio / 1 DVD FLAC)

All Transfers And Mastering By Charlie Miller
charliemiller87 at earthlink.net
February 24, 2016

Patch Info:
(FOB) Schoeps CMC4/MK21 -> Oade Cap Coupled Supply -> Dat supplies:
Drums (5:14 - 5:31)

Notes:
-- Disc change is seamless
-- This is from a custom live recording mix by John Cutler
-- Thanks to Steve Marcus for the tapes
-- Mind Left Body tease after Spoonful
-- This is a pitch corrected version of shnid=87347
-- Thanks to Joe B. Jones for his help with the pitch correction

Set 1:
d1t01 - Greatest Story Ever Told ->
d1t02 - Touch Of Grey
d1t03 - Wang Dang Doodle
d1t04 - Never Trust A Woman
d1t05 - Jack-A-Roe
d1t06 - When I Paint My Masterpiece
d1t07 - Bird Song
d1t08 - Let It Grow

Set 2:
d1t09 - Eyes Of The World ->
d1t10 - Samson And Delilah
d2t01 - Crazy Fingers ->
d2t02 - Truckin' ->
d2t03 - Spoonful ->
d2t04 - Drums ->
d2t05 - Space ->
d2t06 - I Will Take You Home ->
d2t07 - Goin' Down The Road Feeling Bad ->
d2t08 - Black Peter ->
d2t09 - Around And Around

Encore:
d2t10 -	The Mighty Quinn (Quinn The Eskimo)


SHNTOOL OUTPUT:
    length     expanded size    cdr  WAVE problems  fmt   ratio  filename
     3:58.42       42082028 B   ---   --   ---xx   flac  0.6379  gd90-03-25d1t01.flac
     6:20.33       67109660 B   ---   --   ---xx   flac  0.6530  gd90-03-25d1t02.flac
     7:13.11       76407116 B   ---   --   ---xx   flac  0.6254  gd90-03-25d1t03.flac
     7:13.55       76510604 B   ---   --   ---xx   flac  0.6268  gd90-03-25d1t04.flac
     4:16.17       45198428 B   ---   --   ---xx   flac  0.6382  gd90-03-25d1t05.flac
     4:57.12       52419068 B   ---   --   ---xx   flac  0.6310  gd90-03-25d1t06.flac
    13:00.23      137646140 B   ---   --   ---xx   flac  0.6359  gd90-03-25d1t07.flac
    11:45.40      124456124 B   ---   --   ---xx   flac  0.6369  gd90-03-25d1t08.flac
    13:07.34      138906812 B   ---   --   ---xx   flac  0.6258  gd90-03-25d1t09.flac
     7:43.48       81786140 B   ---   --   ---xx   flac  0.6479  gd90-03-25d1t10.flac
     7:18.01       77265596 B   ---   --   ---xx   flac  0.6016  gd90-03-25d2t01.flac
     7:30.23       79434140 B   ---   --   ---xx   flac  0.6668  gd90-03-25d2t02.flac
     4:49.37       51066668 B   ---   --   ---xx   flac  0.6204  gd90-03-25d2t03.flac
    11:08.28      117901100 B   ---   --   ---xx   flac  0.5603  gd90-03-25d2t04.flac
     8:16.64       87644972 B   ---   --   ---xx   flac  0.5314  gd90-03-25d2t05.flac
     4:16.57       45292508 B   ---   --   ---xx   flac  0.5291  gd90-03-25d2t06.flac
     6:52.21       72726236 B   ---   --   ---xx   flac  0.6542  gd90-03-25d2t07.flac
     9:11.25       97255244 B   ---   --   ---xx   flac  0.6043  gd90-03-25d2t08.flac
     6:22.17       67424828 B   ---   --   ---xx   flac  0.6407  gd90-03-25d2t09.flac
     4:44.40       50191724 B   ---   --   ---xx   flac  0.6324  gd90-03-25d2t10.flac
   150:06.28     1588725136 B                            0.6194  (20 files)




More information about the bittorrent mailing list