[bittorrent] gd1983-10-12.135251.mtx.dusborne.flac16

Automated Mailer noreply-bt.e at etree.org
Wed Feb 24 20:13:45 UTC 2016


Band:           Grateful Dead
Torrent Name:   gd1983-10-12.135251.mtx.dusborne.flac16
Uploaded by:    greendude
DB Link:        http://db.etree.org/shn/135251
Details:        http://bt.etree.org/details.php?id=585223

Contact the seeder at http://db.etree.org/greendude

If the link to this show does not work, it was probably removed for
being non-trade-friendly.

Description / text file:
-------------------------
-----THANKS TO DUSBORNE FOR SHARING-----


Grateful Dead

October 12, 1983


Madison Square Garden

New York, NY

2 Source Matrix

Soundboard (shnid:08112)
-------------------------------------------------------------------------------

gd83-10-12.08112.sbd.harrell.sbeok.t-flac16



Lineage:SBD > Cassette Master > Dat x 2 > CDR > SHN

notes:

All editing was performed with Cool Edit Pro.  I made several splices to patch 
cassette 
flips using the etree audience version of this show and 
used many different techniques 
to make these splices as transparent as possible.  Patches are found on the following tracks:




d1t01     6:49.23  -->    7:15.45

d1t02     0:00.00  -->    0:16.68

d1t03     0:00.00  -->    0:10.74

d1t04     0:00.00  -->    0:11.14

d1t07     0:00.00  -->    0:12.44

d1t09     4:21.98  -->    4:25.72

          4:32.27  -->    4:34.87 

d2t03     8:07.53  -->   10:42.52

d3t01    10:25.76  -->   10:42.20



I would like to thank my friend Bob for getting me the etree discs to make the patches and 
thank whomever took the time to record these wonderful audience tapes.  


Tracking note:
The name shn track d101 was changed to flac track d1t01 to keep the naming consistent.

Flac encoding notes:
All processing with Trader's Little Helper
Shn - st5 generated
Shn > Flac ( level 8 )
Flac - st5 generated and matched to Shn st5
B. Proctor 3-28-12

Audience (shnid:91125)
----------------------------------------------------------------------------------
gd83-10-12.91125.fob-senn441-u87.eaton-miller.sbeok.t-flac16

Recording Info:
(FOB) Sennheiser 441 + (1) Neumann U87 -> Cassette Master (Nakamichi 550) -> Dat (48k)

Transfer Info:
Dat (Sony R500) -> Sound Devices 744T -> Samplitude Professional v10.02 -> FLAC
(3 Discs Audio / 2 Discs FLAC)

All Transfers and Mastering By Charlie Miller
charliemiller87 at earthlink.net
March 24, 2008

Notes:
-- Set 2 is seamless
-- Recorded By Rob Eaton
-- Dat provided by J.J. Clifton
-------------------------------------------------------------------------------------------------------
---Thank you Bob Harrell for the SBD.
---Thank you Rob Eaton for recording the show.
---Thank you Charlie Miller for your work on the AUD.
---Thank you J.J. Clifton for providing the AUD DAT.
 ---Thank you Germain for your advice, encouragement, guidance and seeding.

Matrix by dusborne

11-30--2015

-----------------------------------------------------------------------------------------------------------
Set 1


101 - gd83-10-12s1t01 - Cold Rain & Snow           
102 - gd83-10-12s1t02 - New Minglewood Blues             

103 - gd83-10-12s1t03 - Ramble on Rose                 

104 - gd83-10-12s1t04 - My Brother Esau                 

105 - gd83-10-12s1t05 - It Must Have Been the Roses  
106 - gd83-10-12s1t06 - Cassidy                      

107 - gd83-10-12s1t07 - Cumberland Blues             

108 - gd83-10-12s1t08 - Looks Like Rain ->            

109 - gd83-10-12s1t09 - Might as Well

Set 2

201 - gd83-10-12s2t01 - Tuning
202 - gd83-10-12s2t02 - Help on the Way ->
203 - gd83-10-12s2t03 - Slipknot! ->
204 - gd83-10-12s2t04 - Franklin's Tower
205 - gd83-10-12s2t05 - Man Smart (Woman Smarter)
206 - gd83-10-12s2t06 - He's Gone ->
207 - gd83-10-12s2t07 - Drums ->
208 - gd83-10-12s2t08 - Space ->
209 - gd83-10-12s2t09 - Truckin' ->
210 - gd83-10-12s2t10 - Black Peter ->
211 - gd83-10-12s2t11 - Not Fade Away

Encore
212 - gd83-10-12s2t12 - Revolution                


----------------------------------------------------------------------------------------------------------- Tagging notes:
Show information is embedded within the header of each flac file. 
It will display on any player capable of directly playing flac 
files. If converted to wav during processing, all tags will be 
stripped, however audio data will remain unaffected. If you must 
transcode to a lossy format, do so directly Flac > Lossy.
Use st5 to validate audio integrity.
Md5 values will change if tagging is altered.

Dave Usborne 11-30-2015
--------------------------------------------------------------------------------------------------------
length     expanded size    cdr  WAVE problems  fmt   ratio  filename
     8:37.36       91283516 B   ---   --   ---xx   flac  0.5999  gd83-10-12s1t01.flac
    12:35.23      133236140 B   ---   --   ---xx   flac  0.5606  gd83-10-12s1t02.flac
     9:12.21       97422236 B   ---   --   ---xx   flac  0.5800  gd83-10-12s1t03.flac
     6:45.24       71498492 B   ---   --   ---xx   flac  0.5461  gd83-10-12s1t04.flac
     6:54.57       73163708 B   ---   --   ---xx   flac  0.5816  gd83-10-12s1t05.flac
     6:12.56       65752556 B   ---   --   ---xx   flac  0.6413  gd83-10-12s1t06.flac
    10:14.63      108457820 B   ---   --   ---xx   flac  0.6218  gd83-10-12s1t07.flac
     8:41.30       91975004 B   ---   --   ---xx   flac  0.5938  gd83-10-12s1t08.flac
     4:36.48       48799340 B   ---   --   ---xx   flac  0.6331  gd83-10-12s1t09.flac
     1:55.69       20448332 B   ---   --   ---xx   flac  0.4173  gd83-10-12s2t01.flac
     3:59.46       42267836 B   ---   --   ---xx   flac  0.6192  gd83-10-12s2t02.flac
     9:33.66      101232476 B   ---   --   ---xx   flac  0.6039  gd83-10-12s2t03.flac
    15:13.09      161074412 B   ---   --   ---xx   flac  0.6050  gd83-10-12s2t04.flac
     8:30.67       90121628 B   ---   --   ---xx   flac  0.5811  gd83-10-12s2t05.flac
    12:58.37      137326268 B   ---   --   ---xx   flac  0.6010  gd83-10-12s2t06.flac
    11:14.50      119011244 B   ---   --   ---xx   flac  0.5301  gd83-10-12s2t07.flac
    13:21.08      141315260 B   ---   --   ---xx   flac  0.4441  gd83-10-12s2t08.flac
     7:49.59       82870412 B   ---   --   ---xx   flac  0.6314  gd83-10-12s2t09.flac
     9:18.16       98468876 B   ---   --   ---xx   flac  0.5985  gd83-10-12s2t10.flac
    10:14.48      108422540 B   ---   --   ---xx   flac  0.5795  gd83-10-12s2t11.flac
     5:10.67       54841628 B   ---   --   ---xx   flac  0.6383  gd83-10-12s2t12.flac
   183:12.00     1938989724 B                            0.5806  (21 files)



More information about the bittorrent mailing list