[bittorrent] gd1983-10-11.135250.mtx.v2.dusborne.flac16

Automated Mailer noreply-bt.e at etree.org
Wed Feb 24 20:09:37 UTC 2016


Band:           Grateful Dead
Torrent Name:   gd1983-10-11.135250.mtx.v2.dusborne.flac16
Uploaded by:    greendude
DB Link:        http://db.etree.org/shn/135250
Details:        http://bt.etree.org/details.php?id=585222

Contact the seeder at http://db.etree.org/greendude

If the link to this show does not work, it was probably removed for
being non-trade-friendly.

Description / text file:
-------------------------
-----THANKS TO DUSBORNE FOR SHARING-----


***This is a completely new matrix, with a different audience source than the one used for 
   gd83-10-11.120001.mtx.dusborne.flac16. That was my third matrix and I was never happy with 
   the results, there were a lot of phasing issues that have been fixed in this new matrix.

Grateful Dead
October 11, 1983
Madison Square Garden
New York, NY

2 Source Matrix

Soundboard (shnid:07372)
-------------------------------------------------------------------------------
gd83-10-11.07372.sbd.braverman.sbeok.t-flac16

Lineage: SBD > Cassette Master > Dat x 2 > CDR > SHN

notes:
No NR of any kind was used in the production of these discs.
All editing was performed with Cool Edit Pro and and Soundforge. 
I made several splices to patch cassette flips using the etree 
audience version of this show  and used many different technics 
to make these splices as transparent as possible.  Patches are 
found on the following tracks:

Disc 2
d2t01   0:00.00 ->  0:12.20       
d2t06   3:53.19 ->  4:29.22

Disc 3
d3t04   2:42.23 ->  4:33.06

patch source:
FOB Sennheiser 441's > Technics PCM master > DAT
Transfer:  DAT > ZA2 > SoundForge
Taper: Jeff Silberman

***Subsecond dropout at 1:02 in China Cat fixed with a graft from the same
track, same source. This differs from the other patched version, circulated
simultaneously, in that the patch is not "true," but it is from the same
source. Patched by Peter Braverman (braverman at earthlink.net), 02/2002.


I would like to thank my friend Bob for getting me the etree 
discs to make the patches and thank Jay Silberman for taking 
the time to record these wonderful audience tapes.

Any questions or commennts feel free to contact me at 
drgseeds at hotmail.com

Flac encoding notes:
All processing with Trader's Little Helper
Shn - st5 generated
Shn > Flac ( level 8 )
Flac - st5 generated and matched to Shn st5
B. Proctor 3-21-12

Audience (shnid:91124)
------------------------------------------------------------------------------
gd83-10-11.91124.fob-senn441-u87.eaton-miller.t-flac16

Recording Info:
(FOB) Sennheiser 441 + (1) Neumann U87 -> Cassette Master (Nakamichi 550) -> Dat (48k)

Transfer Info:
Dat (Sony R500) -> Sound Devices 744T -> Samplitude Professional v10.02 -> FLAC
(2 Discs Audio / 2 Discs FLAC)

All Transfers and Mastering By Charlie Miller
charliemiller87 at earthlink.net
March 24, 2008

Notes:
-- Disc change is seamless
-- Sugar Magnolia tease before Touch Of Grey
-- Recorded By Rob Eaton
-- Dat provided by J.J. Clifton

-------------------------------------------------------------------------------------------------------
---Thank you Peter Braverman for your work on the SBD.
---Thank you Bob for the SBD discs.
---Thank you Rob Eaton and Jay Silberman for recording the show.
---Thank you Charlie Miller for your work on the AUD.
---Thank you J.J. Clifton for providing the AUD DAT.
---Thank you Germain for your advice, encouragement, guidance and seeding.

Matrix by dusborne

09-23-2015
------------------------------------------------------------------------------------------------------
Set 1

101 - gd83-10-11s1t01 - Tuning
102 - gd83-10-11s1t02 - Wang Dang Doodle ->
103 - gd83-10-11s1t03 - Jack Straw
104 - gd83-10-11s1t04 - Loser
105 - gd83-10-11s1t05 - Me & My Uncle ->
106 - gd83-10-11s1t06 - Mexicali Blues
107 - gd83-10-11s1t07 - Bird Song
108 - gd83-10-11s1t08 - Hell in a Bucket ->
109 - gd83-10-11s1t09 - Keep Your Day Job

Set 2

201 - gd83-10-11s2t01 - China Cat Sunflower ->
202 - gd83-10-11s2t02 - I Know You Rider
203 - gd83-10-11s2t03 - I Need a Miracle ->
204 - gd83-10-11s2t04 - Bertha ->
205 - gd83-10-11s2t05 - Jam ->
206 - gd83-10-11s2t06 - China Doll ->
207 - gd83-10-11s2t07 - Drums ->
208 - gd83-10-11s2t08 - Space ->
209 - gd83-10-11s2t09 - Saint Stephen ->
210 - gd83-10-11s2t10 - Throwing Stones ->
211 - gd83-10-11s2t11 - Touch of Grey

Encore
212 - gd83-10-11s2t12 - Johnny B. Goode
----------------------------------------------------------------------------------------------------------
Tagging notes:
Show information is embedded within the header of each flac file. 
It will display on any player capable of directly playing flac 
files. If converted to wav during processing, all tags will be 
stripped, however audio data will remain unaffected. If you must 
transcode to a lossy format, do so directly Flac > Lossy.
Use ffp to validate audio integrity.
Md5 values will change if tagging is altered.

Dave Usborne 09-23-2015
-------------------------------------------------------------------------------------------------------------
length     expanded size    cdr  WAVE problems  fmt   ratio  filename
     0:59.38       10497020 B   ---   --   ---xx   flac  0.5731  gd83-10-11s1t01.flac
     7:33.03       79916300 B   ---   --   ---xx   flac  0.6535  gd83-10-11s1t02.flac
     5:45.56       60989756 B   ---   --   ---xx   flac  0.6558  gd83-10-11s1t03.flac
     7:52.36       83345516 B   ---   --   ---xx   flac  0.6324  gd83-10-11s1t04.flac
     3:16.42       34673228 B   ---   --   ---xx   flac  0.6678  gd83-10-11s1t05.flac
     5:36.40       59364524 B   ---   --   ---xx   flac  0.6444  gd83-10-11s1t06.flac
    12:21.10      130735964 B   ---   --   ---xx   flac  0.6437  gd83-10-11s1t07.flac
     5:44.06       60695756 B   ---   --   ---xx   flac  0.6865  gd83-10-11s1t08.flac
     4:47.18       50669180 B   ---   --   ---xx   flac  0.6808  gd83-10-11s1t09.flac
     8:44.56       92565356 B   ---   --   ---xx   flac  0.6833  gd83-10-11s2t01.flac
     9:15.48       98014940 B   ---   --   ---xx   flac  0.6061  gd83-10-11s2t02.flac
     4:52.54       51635852 B   ---   --   ---xx   flac  0.6905  gd83-10-11s2t03.flac
     6:15.35       66232364 B   ---   --   ---xx   flac  0.6995  gd83-10-11s2t04.flac
     3:37.14       38311772 B   ---   --   ---xx   flac  0.6748  gd83-10-11s2t05.flac
     8:13.11       86991116 B   ---   --   ---xx   flac  0.6872  gd83-10-11s2t06.flac
    12:33.24      132885692 B   ---   --   ---xx   flac  0.6480  gd83-10-11s2t07.flac
    11:20.02      119956748 B   ---   --   ---xx   flac  0.5728  gd83-10-11s2t08.flac
     7:10.68       76011980 B   ---   --   ---xx   flac  0.6794  gd83-10-11s2t09.flac
     9:13.15       97584524 B   ---   --   ---xx   flac  0.6691  gd83-10-11s2t10.flac
     8:57.16       94764476 B   ---   --   ---xx   flac  0.6781  gd83-10-11s2t11.flac
     4:23.08       46412060 B   ---   --   ---xx   flac  0.6781  gd83-10-11s2t12.flac
   148:33.00     1572254124 B                            0.6554  (21 files)



More information about the bittorrent mailing list