[bittorrent] Cody Matlock Band Darwin's Burgers And Blues Marietta, Georgia 2/22/2016 (Schoeps CCM4V'S FOB)

Automated Mailer noreply-bt.e at etree.org
Tue Feb 23 04:46:36 UTC 2016


Band:           Other
Torrent Name:   Cody Matlock Band Darwin's Burgers And Blues Marietta, Georgia 2/22/2016 (Schoeps CCM4V'S FOB)
Uploaded by:    zmanatl
DB Link:        
Details:        http://bt.etree.org/details.php?id=585190

Contact the seeder at http://db.etree.org/zmanatl

If the link to this show does not work, it was probably removed for
being non-trade-friendly.

Description / text file:
-------------------------
Cody Matlock Band
Darwin's Burgers And Blues
Marietta, Georgia
2/22/2016 

Source: Schoeps CCM4V's>Lunatec V2>Benchmark AD2K>
Sound Devices 722 (24/44)
FOB/DFC/KFC/ZFC/AARP Stage Lip, 6 1/2' High
DSP: Sound Devices 722>Sound Forge 10.0>CD Wave>flac(16)
ID3 Tagged In Foobar 2000
Recorded By: Z-Man
Seeded By: Z-Man

Disc I 

01 Just Kissed My Baby 
02 Since You've Been Gone >
03 Look Over Yonder Wall >
04 Gangsta In Paradise >
05 What's Goin' On 
06 Movin' Along 
07 ?

Disc II 

01 Pretty Woman 
02 Jet Plane >
03 Turn On Your Lovelight >
04 This Little Light Of Mine >
05 Turn On Ylur Lovelight
06 Try Me >
07 ? 
08 If You Love Me Like You Say >
09 Third Stone From The Sun Jam >
10 If You Love Me Like You Say
11 ? >
12 Jealous Guy >
13 When My Train Pulls In 
 
Cody Matlock - Guitar And Vocals
Jon Schwenke - Bass And Vocals
Valarie Waters - Keyboards
Daniel Harper - Drums 

cody2016-02-22d01t01.flac:3c301a4cf9b49da2450c4573db043b78
cody2016-02-22d01t02.flac:f29399576e1726a349f0498cc7c0e803
cody2016-02-22d01t03.flac:afd63a48dfc4232442e4cee906e07272
cody2016-02-22d01t04.flac:0bcb25b2b2c181ecfb4c8cc73a774e2b
cody2016-02-22d01t05.flac:a6ab73827c1a6dec1443ef389bed0ab5
cody2016-02-22d01t06.flac:ad2b4097cd86b9904786830739cf32e3
cody2016-02-22d01t07.flac:0b919b1b58758817f2e8ab2a9cb00221
cody2016-02-22d02t01.flac:35ef1b83ae0276804b9ffc9e8e7c19e0
cody2016-02-22d02t02.flac:ba900ee6feaf2857269486e2bed3d9cb
cody2016-02-22d02t03.flac:72c53d45ba070fd0d5bb75c91afef574
cody2016-02-22d02t04.flac:8f40044c493567bb511b821c8ab8adff
cody2016-02-22d02t05.flac:2bcb5972e3f653c2f6290cbbacac4ce9
cody2016-02-22d02t06.flac:fbe62f75f72d0aa397a74fe771dc0265
cody2016-02-22d02t07.flac:bcc951237472a4dfe1f4aa00987249cf
cody2016-02-22d02t08.flac:7baecaf972909633839929239887eab5
cody2016-02-22d02t09.flac:b27c099de25f18fc5e44f486be0f1a8a
cody2016-02-22d02t10.flac:3cc013063047c10f4b37ebdbfc4b0752
cody2016-02-22d02t11.flac:72710ce3270733e7f21ad7d15863812d
cody2016-02-22d02t12.flac:c0a59314bfc106e1a340d2fbe4314b70
cody2016-02-22d02t13.flac:e1769e111631bf2773a9bf7cd42d0a01

length     expanded size    cdr  WAVE problems  fmt   ratio  filename
     7:52.09       83282012 B   ---   --   ---xx   flac  0.4737  cody2016-02-22d01t01.flac
     5:02.40       53366924 B   ---   --   ---xx   flac  0.4343  cody2016-02-22d01t02.flac
     7:21.31       77865356 B   ---   --   ---xx   flac  0.4491  cody2016-02-22d01t03.flac
     5:38.17       59663228 B   ---   --   ---xx   flac  0.4459  cody2016-02-22d01t04.flac
     6:42.46       71021036 B   ---   --   ---xx   flac  0.4749  cody2016-02-22d01t05.flac
     4:30.00       47628044 B   ---   --   ---xx   flac  0.4604  cody2016-02-22d01t06.flac
     6:29.28       68685500 B   ---   --   ---xx   flac  0.3754  cody2016-02-22d01t07.flac
     4:22.10       46240364 B   ---   --   ---xx   flac  0.4713  cody2016-02-22d02t01.flac
     6:41.62       70882268 B   ---   --   ---xx   flac  0.4141  cody2016-02-22d02t02.flac
     3:04.23       32511740 B   ---   --   ---xx   flac  0.4324  cody2016-02-22d02t03.flac
     2:46.24       29338892 B   ---   --   ---xx   flac  0.4591  cody2016-02-22d02t04.flac
     1:11.27       12587948 B   ---   --   ---xx   flac  0.4722  cody2016-02-22d02t05.flac
     5:06.61       54121916 B   ---   --   ---xx   flac  0.3966  cody2016-02-22d02t06.flac
     5:35.65       59246924 B   ---   --   ---xx   flac  0.4540  cody2016-02-22d02t07.flac
     4:28.29       47343452 B   ---   --   ---xx   flac  0.4016  cody2016-02-22d02t08.flac
     0:38.60        6844364 B   ---   --   ---xx   flac  0.5997  cody2016-02-22d02t09.flac
     2:02.62       21666668 B   ---   --   ---xx   flac  0.3931  cody2016-02-22d02t10.flac
     4:44.68       50257580 B   ---   --   ---xx   flac  0.4876  cody2016-02-22d02t11.flac
     5:08.16       54368876 B   ---   --   ---xx   flac  0.3862  cody2016-02-22d02t12.flac
     7:24.54       78448652 B   ---   --   ---xx   flac  0.5160  cody2016-02-22d02t13.flac
    96:52.57     1025371744 B                            0.4449  (20 files)



J












More information about the bittorrent mailing list