[bittorrent] Barry Richman Blues Jam Highlands Sports Bar And Grill Marietta, Georgia 2/21/2016 (Schoeps CCM4V'S FOB)

Automated Mailer noreply-bt.e at etree.org
Mon Feb 22 18:20:48 UTC 2016


Band:           Other
Torrent Name:   Barry Richman Blues Jam Highlands Sports Bar And Grill Marietta, Georgia 2/21/2016 (Schoeps CCM4V'S FOB)
Uploaded by:    zmanatl
DB Link:        
Details:        http://bt.etree.org/details.php?id=585183

Contact the seeder at http://db.etree.org/zmanatl

If the link to this show does not work, it was probably removed for
being non-trade-friendly.

Description / text file:
-------------------------
Barry Richman Blues Jam 
Highlands Sports Bar And Grill
Marietta, Georgia
2/21/2016 

Source: Schoeps CCM4V's>Lunatec V2>Benchmark AD2K>
Sound Devices 722 (24/44)
FOB/DFC/KFC/ZFC/AARP 8' From Stage, 6' High
DSP: Sound Devices 722>Sound Forge 10.0>CD Wave>flac(16)
ID3 Tagged In Foobar 2000
Recorded By: Z-Man
Seeded By: Z-Man

Disc I 

01 I Love You Honey
02 ?
03 If You Love Me Like You Say
04 Ain't Nobody's Business What I Do
05 Woke Up This Morning
06 Motorcycle Mama >
07 Bass And Drums >
08 Drum Solo >
09 Motorcycle Mama
10 Jam
11 Jim Banter/Outro

Barry Richman - Guitar
Jim Nicoletta - Guitar And Vocals
Darryl Lee - Bass
Aaron Fowler - Drums

barry2016-02-21d01t01.flac:cd6db05550f26bc07abfa843b55ef02d
barry2016-02-21d01t02.flac:86f6c6483f608c9bc5d307d508ef81b2
barry2016-02-21d01t03.flac:abdfaf15b88da887278a531aa8d8bbf0
barry2016-02-21d01t04.flac:33724944f8ea1aa0845de392d290e388
barry2016-02-21d01t05.flac:21b7c7f89a21caa2db011cb87eea74b3
barry2016-02-21d01t06.flac:66a38c6bc676aa6740055a3dc60f321f
barry2016-02-21d01t07.flac:a9af3e5377501b6ca9d47665e756bdb6
barry2016-02-21d01t08.flac:19501ecedeac519a89ce7211c0a24d9c
barry2016-02-21d01t09.flac:ea6dd62254665cf61f52128a0611ba23
barry2016-02-21d01t10.flac:f157eb5a6d05b8c22a8347f4184b1ccc
barry2016-02-21d01t11.flac:5e7dc16f516a92d307a9440cccd8ec5c

 length     expanded size    cdr  WAVE problems  fmt   ratio  filename
     4:14.34       44885612 B   ---   --   ---xx   flac  0.5368  barry2016-02-21d01t01.flac
     5:19.46       56379836 B   ---   --   ---xx   flac  0.4853  barry2016-02-21d01t02.flac
     4:58.13       52597820 B   ---   --   ---xx   flac  0.4630  barry2016-02-21d01t03.flac
     6:16.45       66432284 B   ---   --   ---xx   flac  0.4008  barry2016-02-21d01t04.flac
     6:01.53       63805100 B   ---   --   ---xx   flac  0.4678  barry2016-02-21d01t05.flac
     2:48.56       29766956 B   ---   --   ---xx   flac  0.5364  barry2016-02-21d01t06.flac
     1:47.42       18973628 B   ---   --   ---xx   flac  0.3306  barry2016-02-21d01t07.flac
     1:10.59       12486812 B   ---   --   ---xx   flac  0.4125  barry2016-02-21d01t08.flac
     1:49.51       19347596 B   ---   --   ---xx   flac  0.5521  barry2016-02-21d01t09.flac
     2:49.08       29830460 B   ---   --   ---xx   flac  0.5127  barry2016-02-21d01t10.flac
     1:04.61       11433116 B   ---   --   ---xx   flac  0.3650  barry2016-02-21d01t11.flac
    38:21.18      405939220 B                            0.4676  (11 files)
 




More information about the bittorrent mailing list