[bittorrent] Great Peacock 120 Tavern And Music Hall Marietta, Georgia 2/20/2016 (Schoeps CCM4V'S FOB)

Automated Mailer noreply-bt.e at etree.org
Mon Feb 22 03:00:43 UTC 2016


Band:           Other
Torrent Name:   Great Peacock 120 Tavern And Music Hall Marietta, Georgia 2/20/2016 (Schoeps CCM4V'S FOB)
Uploaded by:    zmanatl
DB Link:        
Details:        http://bt.etree.org/details.php?id=585177

Contact the seeder at http://db.etree.org/zmanatl

If the link to this show does not work, it was probably removed for
being non-trade-friendly.

Description / text file:
-------------------------
Great Peacock
120 Tavern And Music Hall
Marietta, Georgia
2/20/2016 

Source: Schoeps CCM4V's>Lunatec V2>Benchmark AD2K>
Sound Devices 722 (24/44)
FOB/DFC/KFC/ZFC/AARP 30' From Stage, 7 1/2' High
DSP: Sound Devices 722>Sound Forge 10.0>CD Wave>flac(16)
ID3 Tagged In Foobar 2000
Recorded By: Z-Man
Seeded By: Z-Man

Disc I 

01 Church Bells
02 ?
03 ?
04 *Hard Luck Story
05 ?
06 Unknown 
07 ?
08 I'm Beggin' To Stay
09 #@?
10 #@^?

* With Chris "Bell" Antemesaris Of Thomas Wynn And The Believers On Harmonica
# With Jeff Moore On Mandolin
@ With Colin Daniel Fei Of Thomas Wynn And The Believers On Keyboards
^ With Olivia Wynn Of Thomas Wynn And The Believers On Vocals

great2016-02-20d01t01.flac:d1120bf1c59db828954c71603b43085c
great2016-02-20d01t02.flac:1590ad7a210174a4b4e865dc7fb41ea6
great2016-02-20d01t03.flac:73d54f42c289958df182d32f20f60feb
great2016-02-20d01t04.flac:8eace1ced7040ebce0379b52f9d6bc10
great2016-02-20d01t05.flac:fa94e95e57950cc489ebd781a7b22a83
great2016-02-20d01t06.flac:ac09a160b47e01b7c4e9cd95fb8436a6
great2016-02-20d01t07.flac:b200aba0a0963ac634bb2eb0761d0458
great2016-02-20d01t08.flac:4c13adb73fd334d6648f918bc56d3367
great2016-02-20d01t09.flac:4662974217a8af6a2d56f1b0f48436a3
great2016-02-20d01t10.flac:3ea784698d4c37a1cfc54d6392149518

length     expanded size    cdr  WAVE problems  fmt   ratio  filename
     5:06.35       54060764 B   ---   --   ---xx   flac  0.5245  great2016-02-20d01t01.flac
     4:02.42       42787628 B   ---   --   ---xx   flac  0.5086  great2016-02-20d01t02.flac
     5:45.59       60996812 B   ---   --   ---xx   flac  0.4850  great2016-02-20d01t03.flac
     3:43.10       39360764 B   ---   --   ---xx   flac  0.5439  great2016-02-20d01t04.flac
     6:32.63       69297020 B   ---   --   ---xx   flac  0.5325  great2016-02-20d01t05.flac
     4:19.72       45856988 B   ---   --   ---xx   flac  0.4918  great2016-02-20d01t06.flac
     4:49.70       51144284 B   ---   --   ---xx   flac  0.5402  great2016-02-20d01t07.flac
     6:26.14       68123372 B   ---   --   ---xx   flac  0.4982  great2016-02-20d01t08.flac
     5:23.26       57038396 B   ---   --   ---xx   flac  0.4638  great2016-02-20d01t09.flac
     6:29.08       68638460 B   ---   --   ---xx   flac  0.5384  great2016-02-20d01t10.flac
    52:39.24      557304488 B                            0.5124  (10 files)
 
























More information about the bittorrent mailing list