[bittorrent] Drivin' N' Cryin' 120 Tavern And Music Hall Marietta, Georgia 2/20/2016 (Schoeps CCM4V'S FOB)

Automated Mailer noreply-bt.e at etree.org
Sun Feb 21 15:26:06 UTC 2016


Band:           Kevn Kinney
Torrent Name:   Drivin' N' Cryin' 120 Tavern And Music Hall Marietta, Georgia 2/20/2016 (Schoeps CCM4V'S FOB)
Uploaded by:    zmanatl
DB Link:        
Details:        http://bt.etree.org/details.php?id=585165

Contact the seeder at http://db.etree.org/zmanatl

If the link to this show does not work, it was probably removed for
being non-trade-friendly.

Description / text file:
-------------------------
Drivin' N' Cryin'
120 Tavern And Music Hall
Marietta, Georgia
2/20/2016 

Source: Schoeps CCM4V's>Lunatec V2>Benchmark AD2K>
Sound Devices 722 (24/44)
FOB/DFC/KFC/ZFC/AARP 30' From Stage, 7 1/2' High
DSP: Sound Devices 722>Sound Forge 10.0>CD Wave>flac(16)
ID3 Tagged In Foobar 2000
Recorded By: Z-Man
Seeded By: Z-Man

Disc I 

01 Jesus Christ >
02 Fly Me Courageous 
03 ?
04 Tomorrow >
05 Get Used To It
06 Madman Blues
07 ? > 
08 Honeysuckle Blue
09 *Dirty Angels 

Disc II 

01 *?
02 *Let's Go Dancin' 
03 *I See Georgia >
04 *#@Straight To Hell >
05 #@Rap >
06 #@^Why Don't We Do It In The Road
Encore:
07 Pre-Approved, Pre-Denied >
08 #+Blues On Top Of Blues 

* Kevn On Acoustic Guitar
# With ? Of Thomas Wynn And The Believers On Keyboards
@ With ? Of The Great Peacock On Guitar And Vocals
^ With ? Of Thomas Wynn And The Believers On Vocals
+ With ? Of Thoas Wynn And The Believers On Harmonica
 
Kevn Kinney - Guitar And Vocals
Tim Nielson - Bass And Vocals
Peter Stroud (Of Sheryl Crow Band) - Guitar And Vocals
Dave V. Johnson - Drums

drivin2016-02-20d01t01.flac:b78b997552083215883fc5722e67b6b1
drivin2016-02-20d01t02.flac:ab6251fa79419f19a33cc09e179e2d06
drivin2016-02-20d01t03.flac:ed0b9d7ba6ace45438283e155b8aa4a6
drivin2016-02-20d01t04.flac:91baac5db006d3cc51fadb783b720a22
drivin2016-02-20d01t05.flac:b20ecd1f82612d9d97f1c7636ee1ccbd
drivin2016-02-20d01t06.flac:afd7d9542d7bfd377cbb38f5e9796cb8
drivin2016-02-20d01t07.flac:67871afd0486e652b07cd4e81be36453
drivin2016-02-20d01t08.flac:935df368831e8d5bf76c8fe5496b27f1
drivin2016-02-20d01t09.flac:7586652d656c502bd052da92bf8c35ee
drivin2016-02-20d02t01.flac:0cf971df9edf4732498325af8a1ba355
drivin2016-02-20d02t02.flac:7798dfaf4809f2f24904e6cb46b38aa6
drivin2016-02-20d02t03.flac:b65dc2b19dc5dab86a99a623ac1befb4
drivin2016-02-20d02t04.flac:249e922eba3ca18af7ecddf767d8daf3
drivin2016-02-20d02t05.flac:2cc4e9192f3ffcfb361d03e514290974
drivin2016-02-20d02t06.flac:284fc35e7cea846c885d97cb60b1fad3
drivin2016-02-20d02t07.flac:9fad96d84b6841cdf071a56c12b5afa3
drivin2016-02-20d02t08.flac:5fd170ec128734931000d05a3938cbbd

length     expanded size    cdr  WAVE problems  fmt   ratio  filename
     6:40.44       70663532 B   ---   --   ---xx   flac  0.5413  drivin2016-02-20d01t01.flac
     8:39.19       91596332 B   ---   --   ---xx   flac  0.5592  drivin2016-02-20d01t02.flac
     4:08.24       43803692 B   ---   --   ---xx   flac  0.5438  drivin2016-02-20d01t03.flac
     6:51.01       72502796 B   ---   --   ---xx   flac  0.5334  drivin2016-02-20d01t04.flac
     7:28.21       79076636 B   ---   --   ---xx   flac  0.5388  drivin2016-02-20d01t05.flac
     7:18.60       77404364 B   ---   --   ---xx   flac  0.4891  drivin2016-02-20d01t06.flac
     6:58.51       73855196 B   ---   --   ---xx   flac  0.5429  drivin2016-02-20d01t07.flac
     9:33.28      101143100 B   ---   --   ---xx   flac  0.5237  drivin2016-02-20d01t08.flac
     4:16.59       45297212 B   ---   --   ---xx   flac  0.5468  drivin2016-02-20d01t09.flac
     4:20.47       45974588 B   ---   --   ---xx   flac  0.4087  drivin2016-02-20d02t01.flac
     4:37.45       48968684 B   ---   --   ---xx   flac  0.4827  drivin2016-02-20d02t02.flac
     6:44.15       71300924 B   ---   --   ---xx   flac  0.4586  drivin2016-02-20d02t03.flac
    10:32.26      111545996 B   ---   --   ---xx   flac  0.4852  drivin2016-02-20d02t04.flac
     1:19.54       14062652 B   ---   --   ---xx   flac  0.3888  drivin2016-02-20d02t05.flac
     4:18.64       45661772 B   ---   --   ---xx   flac  0.5880  drivin2016-02-20d02t06.flac
     6:45.41       71538476 B   ---   --   ---xx   flac  0.4226  drivin2016-02-20d02t07.flac
    16:20.11      172897916 B   ---   --   ---xx   flac  0.5414  drivin2016-02-20d02t08.flac
   116:54.10     1237293868 B                            0.5138  (17 files)
 






















More information about the bittorrent mailing list