[bittorrent] gd1982-05-23.aud.schley.135249.flac1644

Automated Mailer noreply-bt.e at etree.org
Sun Feb 21 03:39:52 UTC 2016


Band:           Grateful Dead
Torrent Name:   gd1982-05-23.aud.schley.135249.flac1644
Uploaded by:    nfagdtrfb
DB Link:        http://db.etree.org/shn/135249
Details:        http://bt.etree.org/details.php?id=585155

Contact the seeder at http://db.etree.org/nfagdtrfb

If the link to this show does not work, it was probably removed for
being non-trade-friendly.

Description / text file:
-------------------------
GRATEFUL DEAD
Greek Theater
Berkeley CA
05-23-1982

s1t01 Shakedown Street >
s1t02 Promised Land
s1t03 They Love Each Other
s1t04 Mama Tried >
s1t05 Mexicali Blues
s1t06 Loser >
s1t07 Little Red Rooster
s1t08 Ramble On Rose
s1t09 Let it Grow

s2t01 Scarlet Begonias >
s2t02 Fire on the Mountain
s2t03 Samson & Delilah
s2t04 Ship of Fools
s2t05 Estimated Prophet >
s2t06 Eyes of the World >
s2t07 Drums with motorcycle >
s2t08 Space >
s2t09 The Other One >
s2t10 Stella Blue >
s2t11 I Need a Miracle >
s2t12 Casey Jones
s2t13 Encore: Satisfaction >
s2t14 Encore: Brokedown Palace

AUD: Unknown mics (possibly handheld Naks) > unknown lead deck > 
Sony TC-D5M > Maxell MX-90's, FOB recording by Brian Schley.

Transfer: MAC > Nakamichi CR-5A > Edirol FA-66 > Wavelab 2448 > 
R8Brain SRC > Wavelab (adding 16-bit patches) > CD-Wave > TLH > 
FLAC 1644 tagged. Transferred by Andrew F. 02/2016

Note: A decent FOB stealth recording plagued by small electronic 
gremlins; mic bumps, drop-outs, cable problems, abrupt tape-flips, 
pops & static, etc. Noticeable in spots, but overall, not too bad. 
All the cuts were patched with ID-101955 making the show seamless. 
Thanks Jon Pasternak & Charlie McGuth for organizing this project!

    length     expanded size    cdr  WAVE problems  fmt   ratio  filename
    13:14.68      140221580 B   ---   --   ---xx   flac  0.6561  gd1982-05-23s1t01.flac
     4:07.53       43695500 B   ---   --   ---xx   flac  0.6628  gd1982-05-23s1t02.flac
     7:52.69       83423132 B   ---   --   ---xx   flac  0.6393  gd1982-05-23s1t03.flac
     2:28.35       26189564 B   ---   --   ---xx   flac  0.6377  gd1982-05-23s1t04.flac
     4:25.73       46917740 B   ---   --   ---xx   flac  0.6552  gd1982-05-23s1t05.flac
     7:04.71       74960636 B   ---   --   ---xx   flac  0.6396  gd1982-05-23s1t06.flac
     7:37.60       80755964 B   ---   --   ---xx   flac  0.6507  gd1982-05-23s1t07.flac
     7:02.50       74558444 B   ---   --   ---xx   flac  0.6391  gd1982-05-23s1t08.flac
    11:12.56      118672556 B   ---   --   ---xx   flac  0.6555  gd1982-05-23s1t09.flac
    12:20.31      130608956 B   ---   --   ---xx   flac  0.6355  gd1982-05-23s2t01.flac
     9:36.69      101768732 B   ---   --   ---xx   flac  0.6282  gd1982-05-23s2t02.flac
     7:17.36       77171516 B   ---   --   ---xx   flac  0.6342  gd1982-05-23s2t03.flac
     7:34.58       80222060 B   ---   --   ---xx   flac  0.6113  gd1982-05-23s2t04.flac
    12:32.40      132746924 B   ---   --   ---xx   flac  0.6239  gd1982-05-23s2t05.flac
     9:10.27       97083548 B   ---   --   ---xx   flac  0.6417  gd1982-05-23s2t06.flac
     9:46.16      103408076 B   ---   --   ---xx   flac  0.5643  gd1982-05-23s2t07.flac
     6:50.71       72491036 B   ---   --   ---xx   flac  0.5757  gd1982-05-23s2t08.flac
    12:08.08      128438060 B   ---   --   ---xx   flac  0.6216  gd1982-05-23s2t09.flac
     7:40.08       81162860 B   ---   --   ---xx   flac  0.6044  gd1982-05-23s2t10.flac
     4:31.70       47969084 B   ---   --   ---xx   flac  0.6536  gd1982-05-23s2t11.flac
     5:24.22       57205388 B   ---   --   ---xx   flac  0.6470  gd1982-05-23s2t12.flac
     6:18.68       66839180 B   ---   --   ---xx   flac  0.6407  gd1982-05-23s2t13.flac
     5:26.47       57616988 B   ---   --   ---xx   flac  0.6171  gd1982-05-23s2t14.flac
   181:47.56     1924127524 B                            0.6306  (23 files)

No errors occured.




More information about the bittorrent mailing list