[bittorrent] Barry Richman Band Steve's Live Music Sandy Springs, Georgia 2/19/2016 (Schoeps CCM4V'S FOB)

Automated Mailer noreply-bt.e at etree.org
Sat Feb 20 17:51:58 UTC 2016


Band:           Other
Torrent Name:   Barry Richman Band Steve's Live Music Sandy Springs, Georgia 2/19/2016 (Schoeps CCM4V'S FOB)
Uploaded by:    zmanatl
DB Link:        
Details:        http://bt.etree.org/details.php?id=585147

Contact the seeder at http://db.etree.org/zmanatl

If the link to this show does not work, it was probably removed for
being non-trade-friendly.

Description / text file:
-------------------------
Barry Richman And Friends
Steve's Live Music
Sandy Springs, Georgia
2/19/2016 

Source: Schoeps CCM4V's>Lunatec V2>Benchmark AD2K>
Sound Devices 722 (24/44)
FOB/DFC/KFC/ZFC/AARP Stage Lip, 6 1/2' High
DSP: Sound Devices 722>Sound Forge 10.0>CD Wave>flac(16)
ID3 Tagged In Foobar 2000
Recorded By: Z-Man
Seeded By: Z-Man

Disc I 1st Set

01 What's Goin' On 
02 The Thrill Is Gone
03 Don't Change Horses In The Middle Of The Stream
04 Cherokee
05 All I Want
06 White Trash TV
07 Goin' Down South
08 Congo Square
09 ?
10 ?

Disc II 2nd Set

01 The Wind Cries Mary >
02 ?
03 Sara Smile
04 Southbound >
05 Big Legged Woman >
06 Southbound
07 Waitin' On The World To Change >
08 People Get Ready >
09 Waitin' On The World To Change
10 Walk The Dog
11 Life Worth Livin'

Disc III 2nd Set Con't

01 Acid In Your Face
02 Ain't Nobody's Business
03 Moanin'
04 Little Wing
05 Nobody Worry For Me
06 I Can't Trust Myself >
07 The Letter >
08 I Can't Trust Myself
09 ?
10 ?
11 The Chicken 
12 Band Introductions And outro
 
Barry Richman - Guitar And Vocals
Marla Feeney - Saxophone 
Joel Edwards - Bass And Vocals
Bill Diehl - Drums
Jeff Robinson - Vocals
 
barry2016-02-19d01t01.flac:58cd18b653caf64e6f6fd718a340e879
barry2016-02-19d01t02.flac:f5881f7012833fc6af37b53e687ecbda
barry2016-02-19d01t03.flac:1fe62553d299e33f21e7aac12eceddf8
barry2016-02-19d01t04.flac:9be3cfa8626f3d7396452146db7157af
barry2016-02-19d01t05.flac:17c2349f342390630ba6b15544396561
barry2016-02-19d01t06.flac:4008c4bbe6b198d559b9ec603d8999fa
barry2016-02-19d01t07.flac:d3b50b374af5ee16156ee0599d101d9b
barry2016-02-19d01t08.flac:607e43985e87a2b9f5bb424caa5de002
barry2016-02-19d01t09.flac:1cd8f83e723b94caf11e8ba522608199
barry2016-02-19d01t10.flac:ddb810471307cdd2bd0dbb544b47223a
barry2016-02-19d02t01.flac:1809ce9db604b89e79326a31acee365e
barry2016-02-19d02t02.flac:cc8eab96b7395c9febc89325c7bbc4cf
barry2016-02-19d02t03.flac:b17150fdab14159e2243070f5208f235
barry2016-02-19d02t04.flac:edf764529a30346fde00dcadd35557b0
barry2016-02-19d02t05.flac:b11b44152aa6b6a7b07300eec6d5cec3
barry2016-02-19d02t06.flac:2d46902d8160bd9ccc7e779b7ad871df
barry2016-02-19d02t07.flac:9de4c167ddae07a54e43d1c53eba139b
barry2016-02-19d02t08.flac:0a19a912be62070af945cb79945c9870
barry2016-02-19d02t09.flac:efd5911b739c951191627c504f138b7b
barry2016-02-19d02t10.flac:29e32a5d7692302d6e47caeae4d6c392
barry2016-02-19d02t11.flac:876a05e97b212d1079b9f98c84e04470
barry2016-02-19d03t01.flac:8a9a30e2c5aea3424be02a5ccaa4d22a
barry2016-02-19d03t02.flac:218a1093fcb78e127dfbabbff4802fe9
barry2016-02-19d03t03.flac:f1f0f288a67030c2c56d346bf1441a09
barry2016-02-19d03t04.flac:a105c5f3e4d623968926938f9ae33a0a
barry2016-02-19d03t05.flac:6807e3ef737c42cdc3d0cb3dabba88b8
barry2016-02-19d03t06.flac:75a8357088ab0185d9b1857fe5e72aa2
barry2016-02-19d03t07.flac:c473354c177cf47a6cfed07dc12695a7
barry2016-02-19d03t08.flac:7b9c9d6b70f6babbb6ce2685cdf3d603
barry2016-02-19d03t09.flac:9f6206836c5210d6f37055a70cf67c33
barry2016-02-19d03t10.flac:98abcb75f2a5ec52f63073be66bedd4c
barry2016-02-19d03t11.flac:a92c46d7c80f132c6307666bd9c5e9d5
barry2016-02-19d03t12.flac:23b26215ec0237196f12201f6634d63a

 length     expanded size    cdr  WAVE problems  fmt   ratio  filename
     7:52.47       83371388 B   ---   --   ---xx   flac  0.4382  barry2016-02-19d01t01.flac
     6:31.09       68993612 B   ---   --   ---xx   flac  0.4527  barry2016-02-19d01t02.flac
    10:15.19      108530732 B   ---   --   ---xx   flac  0.4572  barry2016-02-19d01t03.flac
     7:06.24       75202892 B   ---   --   ---xx   flac  0.4877  barry2016-02-19d01t04.flac
     4:26.50       47040044 B   ---   --   ---xx   flac  0.4369  barry2016-02-19d01t05.flac
     6:14.60       66114764 B   ---   --   ---xx   flac  0.4550  barry2016-02-19d01t06.flac
     7:09.39       75767372 B   ---   --   ---xx   flac  0.4714  barry2016-02-19d01t07.flac
     8:23.08       88748060 B   ---   --   ---xx   flac  0.4428  barry2016-02-19d01t08.flac
     8:20.06       88214156 B   ---   --   ---xx   flac  0.4712  barry2016-02-19d01t09.flac
     7:47.54       82505852 B   ---   --   ---xx   flac  0.4765  barry2016-02-19d01t10.flac
     5:07.65       54307724 B   ---   --   ---xx   flac  0.4440  barry2016-02-19d02t01.flac
     8:20.18       88242380 B   ---   --   ---xx   flac  0.4540  barry2016-02-19d02t02.flac
     6:02.14       63889772 B   ---   --   ---xx   flac  0.4614  barry2016-02-19d02t03.flac
     4:40.60       49533164 B   ---   --   ---xx   flac  0.5042  barry2016-02-19d02t04.flac
     1:31.31       16125356 B   ---   --   ---xx   flac  0.5155  barry2016-02-19d02t05.flac
     0:41.19        7277132 B   ---   --   ---xx   flac  0.5110  barry2016-02-19d02t06.flac
     2:43.01       28755596 B   ---   --   ---xx   flac  0.4644  barry2016-02-19d02t07.flac
     2:10.24       22988492 B   ---   --   ---xx   flac  0.4551  barry2016-02-19d02t08.flac
     2:03.48       21810140 B   ---   --   ---xx   flac  0.4324  barry2016-02-19d02t09.flac
     4:52.39       51600572 B   ---   --   ---xx   flac  0.5289  barry2016-02-19d02t10.flac
    10:03.68      106529180 B   ---   --   ---xx   flac  0.4333  barry2016-02-19d02t11.flac
     6:13.39       65888972 B   ---   --   ---xx   flac  0.5035  barry2016-02-19d03t01.flac
     6:00.54       63631052 B   ---   --   ---xx   flac  0.3977  barry2016-02-19d03t02.flac
     5:13.19       55257932 B   ---   --   ---xx   flac  0.4209  barry2016-02-19d03t03.flac
     7:58.31       84392156 B   ---   --   ---xx   flac  0.4297  barry2016-02-19d03t04.flac
     4:56.52       52336748 B   ---   --   ---xx   flac  0.4585  barry2016-02-19d03t05.flac
     3:36.59       38241212 B   ---   --   ---xx   flac  0.4343  barry2016-02-19d03t06.flac
     1:48.49       19166492 B   ---   --   ---xx   flac  0.5341  barry2016-02-19d03t07.flac
     1:47.20       18921884 B   ---   --   ---xx   flac  0.3370  barry2016-02-19d03t08.flac
     4:37.50       48980444 B   ---   --   ---xx   flac  0.4059  barry2016-02-19d03t09.flac
     4:24.32       46644908 B   ---   --   ---xx   flac  0.5202  barry2016-02-19d03t10.flac
     5:28.21       57908636 B   ---   --   ---xx   flac  0.4831  barry2016-02-19d03t11.flac
     1:06.28       11708300 B   ---   --   ---xx   flac  0.3820  barry2016-02-19d03t12.flac
   175:36.32     1858627116 B                            0.4572  (33 files)












More information about the bittorrent mailing list