[bittorrent] John McKnight Blues Jam Darwin's Burgers And Blues Marietta, Georgia 2/17/2016 (Schoeps CCM4V'S FOB)

Automated Mailer noreply-bt.e at etree.org
Thu Feb 18 03:46:14 UTC 2016


Band:           Other
Torrent Name:   John McKnight Blues Jam Darwin's Burgers And Blues Marietta, Georgia 2/17/2016 (Schoeps CCM4V'S FOB)
Uploaded by:    zmanatl
DB Link:        
Details:        http://bt.etree.org/details.php?id=585113

Contact the seeder at http://db.etree.org/zmanatl

If the link to this show does not work, it was probably removed for
being non-trade-friendly.

Description / text file:
-------------------------
John McKnight Blues Jam
Darwin's Burgers And Blues
Marietta, Georgia
2/17/2016 

Source: Schoeps CCM4V's>Lunatec V2>Benchmark AD2K>
Sound Devices 722 (24/44)
FOB/DFC/KFC/ZFC/AARP Stage Lip, 4' High
DSP: Sound Devices 722>Sound Forge 10.0>CD Wave>flac(16)
ID3 Tagged In Foobar 2000
Recorded By: Z-Man
Seeded By: Z-Man

Disc I 

01 Compared To What
02 I'm Tired
03 This Ol' Cowboy
04 Fire On The Bayou
05 *
06 *Lonely Night In Georgia
07 ?
08 Peace My Brother
09 You And Me Forever Sarah

* With Jon Playing Upright Bass

John McKnight - Drums And Vocals
Jon Schwenke - Bass And Vocals
Jimmy Dormeyer - Guitar And Bass

john2016-02-17d01t01.flac:b869bffd01076516c7a3c0fb4941cbe9
john2016-02-17d01t02.flac:056a34ba32c265fa0e0a7afa31f6edf3
john2016-02-17d01t03.flac:99c5d8ee64eb260799871791e8caf471
john2016-02-17d01t04.flac:5ff94f3191e72225d52005fe4cdfc490
john2016-02-17d01t05.flac:41c08e052e19b735a76f085505d443f2
john2016-02-17d01t06.flac:f77151aaf81aa3d827a07267b38b4e6e
john2016-02-17d01t07.flac:8bd0d3ce3204450f124c0dfd146726da
john2016-02-17d01t08.flac:24cf2d2789c0e3948f9215dfd679993f
john2016-02-17d01t09.flac:21d417fbbd725f4857c3fe5b755667b9

 length     expanded size    cdr  WAVE problems  fmt   ratio  filename
     7:09.63       75823820 B   ---   --   ---xx   flac  0.5089  john2016-02-17d01t01.flac
     4:04.27       43105148 B   ---   --   ---xx   flac  0.5075  john2016-02-17d01t02.flac
     7:06.38       75235820 B   ---   --   ---xx   flac  0.4944  john2016-02-17d01t03.flac
    11:16.39      119338172 B   ---   --   ---xx   flac  0.5048  john2016-02-17d01t04.flac
     8:35.66       91001276 B   ---   --   ---xx   flac  0.4161  john2016-02-17d01t05.flac
     6:33.53       69449900 B   ---   --   ---xx   flac  0.4649  john2016-02-17d01t06.flac
     4:42.25       49803644 B   ---   --   ---xx   flac  0.5105  john2016-02-17d01t07.flac
     6:20.12       67060268 B   ---   --   ---xx   flac  0.5104  john2016-02-17d01t08.flac
     6:05.67       64543628 B   ---   --   ---xx   flac  0.4741  john2016-02-17d01t09.flac
    61:55.15      655361676 B                            0.4857  (9 files)


























More information about the bittorrent mailing list