[bittorrent] Widespread Panic Von Braun Theatre Huntsville, Alabama 2/16/2016 (Schoeps CCM4V'S FOB)

Automated Mailer noreply-bt.e at etree.org
Wed Feb 17 09:08:47 UTC 2016


Band:           Widespread Panic
Torrent Name:   Widespread Panic Von Braun Theatre Huntsville, Alabama 2/16/2016 (Schoeps CCM4V'S FOB)
Uploaded by:    zmanatl
DB Link:        
Details:        http://bt.etree.org/details.php?id=585102

Contact the seeder at http://db.etree.org/zmanatl

If the link to this show does not work, it was probably removed for
being non-trade-friendly.

Description / text file:
-------------------------
Widespread Panic
Von Braun Theatre
Huntsville, Alabama
2/16/2016 

Source: Schoeps CCM4V's>Lunatec V2>Benchmark AD2K>
Sound Devices 722 (24/44)
FOB/DFC/KFC/ZFC/AARP Orchestra 4A, Row F, Seat 31, 6 1/2' High
DSP: Sound Devices 722>Sound Forge 10.0>CD Wave>flac(16)
ID3 Tagged In Foobar 2000
Recorded By: Z-Man
Seeded By: Z-Man

Disc I 1st Set

01 Greeting
02 One-Arm Steve >
03 Can't Get High
04 Cotton Was King
05 Gimme >
06 Jam >
07 Good People >
08 Jam >
09 Me And The Devil Blues
10 Better Off
11 Pigeons
12 Chunk Of Coal 
13 Ain't Life Grand

Disc II 2nd Set

01 Second Skin >
02 Greta >
03 Jam >
04 Christmas Katie >
05 Travelin' Light >
06 Pickin' Up The Pieces >
07 Big Wooly Mammoth >


Disc III 2nd Set Con't

01 Drum Solo >
02 Cease Fire >
03 Jamais Vu >
04I Space Wrangler
Encore:
05 May Your Glass Be Filled >
06 Climb To Safety

wsp2016-02-16d01t01.flac:27bf5a22547cb8d4521a82e773ab1635
wsp2016-02-16d01t02.flac:f53b27fd93845437a501781bdfb2b7b7
wsp2016-02-16d01t03.flac:4f0d169f43723b9ccd5b1251e30d63e7
wsp2016-02-16d01t04.flac:4869ddb98507ebf27758d218786fdbe9
wsp2016-02-16d01t05.flac:d1aecda25307bbb2abbdd691dc2564dd
wsp2016-02-16d01t06.flac:97fb73ec47c22aba43eadca0da38e10a
wsp2016-02-16d01t07.flac:aedd8e7f787544c271079e3614601eeb
wsp2016-02-16d01t08.flac:7625161cd64ed813fec7faa5a62f573e
wsp2016-02-16d01t09.flac:94596d74c23b87a03993b4fa9b175a11
wsp2016-02-16d01t10.flac:31f18df4b7c4f76a5a5b0ac7a2973df3
wsp2016-02-16d01t11.flac:ceed81d117f30664c8a05899107293b1
wsp2016-02-16d01t12.flac:f95e38d964edb566eade78103b598142
wsp2016-02-16d01t13.flac:81f9447ee0c3c80f320ce8e4ad7507ed
wsp2016-02-16d02t01.flac:5476b1a9b09153034326ac80dc371d86
wsp2016-02-16d02t02.flac:560e683b20fe78904c2851dd10a25ec2
wsp2016-02-16d02t03.flac:8e206b30c8a8aefbc4e18f53917067b4
wsp2016-02-16d02t04.flac:b7e9b94c6c52cffa2f40cbea299648f3
wsp2016-02-16d02t05.flac:98a8ee3e488f50302af2e6beb62f4171
wsp2016-02-16d02t06.flac:e1a015e9a8039ef54177053254573cd0
wsp2016-02-16d02t07.flac:ba33dc5249cefecbd3d1c3a9346272b6
wsp2016-02-16d03t01.flac:497215875083564a628043a4f2f727c8
wsp2016-02-16d03t02.flac:64a0594d2ed338063f432ef828082c4b
wsp2016-02-16d03t03.flac:cf59d8303bff043f595e3d7c47444650
wsp2016-02-16d03t04.flac:a5a6124b831b7ec490ce9540559ff27c
wsp2016-02-16d03t05.flac:f2ed10bcbcee01be48d58ef77afbcf83
wsp2016-02-16d03t06.flac:afa6e244e1b9adf856d59610e651bc18

length     expanded size    cdr  WAVE problems  fmt   ratio  filename
     0:14.51        2589596 B   ---   --   ---xx   flac  0.3879  wsp2016-02-16d01t01.flac
     3:27.13       36545420 B   ---   --   ---xx   flac  0.5244  wsp2016-02-16d01t02.flac
     3:46.65       40019324 B   ---   --   ---xx   flac  0.5238  wsp2016-02-16d01t03.flac
     6:07.33       64816460 B   ---   --   ---xx   flac  0.5032  wsp2016-02-16d01t04.flac
     5:59.30       63398204 B   ---   --   ---xx   flac  0.4327  wsp2016-02-16d01t05.flac
     5:00.31       52992956 B   ---   --   ---xx   flac  0.4906  wsp2016-02-16d01t06.flac
     5:59.02       63332348 B   ---   --   ---xx   flac  0.5185  wsp2016-02-16d01t07.flac
     4:05.61       43361516 B   ---   --   ---xx   flac  0.5146  wsp2016-02-16d01t08.flac
    10:28.03      110786300 B   ---   --   ---xx   flac  0.4569  wsp2016-02-16d01t09.flac
     6:31.58       69108860 B   ---   --   ---xx   flac  0.4871  wsp2016-02-16d01t10.flac
     9:21.38       99049820 B   ---   --   ---xx   flac  0.5146  wsp2016-02-16d01t11.flac
     4:46.47       50560988 B   ---   --   ---xx   flac  0.4479  wsp2016-02-16d01t12.flac
     5:28.05       57871004 B   ---   --   ---xx   flac  0.4974  wsp2016-02-16d01t13.flac
    16:44.36      177190316 B   ---   --   ---xx   flac  0.5068  wsp2016-02-16d02t01.flac
     7:20.35       77698364 B   ---   --   ---xx   flac  0.5348  wsp2016-02-16d02t02.flac
     7:27.53       78975500 B   ---   --   ---xx   flac  0.5038  wsp2016-02-16d02t03.flac
     6:44.48       71378540 B   ---   --   ---xx   flac  0.4953  wsp2016-02-16d02t04.flac
     6:10.54       65395052 B   ---   --   ---xx   flac  0.5111  wsp2016-02-16d02t05.flac
     6:54.19       73074332 B   ---   --   ---xx   flac  0.5046  wsp2016-02-16d02t06.flac
    10:31.66      111463676 B   ---   --   ---xx   flac  0.5305  wsp2016-02-16d02t07.flac
    11:45.44      124465532 B   ---   --   ---xx   flac  0.4612  wsp2016-02-16d03t01.flac
     8:22.19       88597532 B   ---   --   ---xx   flac  0.5100  wsp2016-02-16d03t02.flac
     8:09.09       86280812 B   ---   --   ---xx   flac  0.4712  wsp2016-02-16d03t03.flac
     9:29.33      100449260 B   ---   --   ---xx   flac  0.5131  wsp2016-02-16d03t04.flac
     5:28.08       57878060 B   ---   --   ---xx   flac  0.4187  wsp2016-02-16d03t05.flac
     6:40.33       70637660 B   ---   --   ---xx   flac  0.5207  wsp2016-02-16d03t06.flac
   183:05.69     1937917432 B                            0.4957  (26 files)













More information about the bittorrent mailing list