[bittorrent] Widespread Panic Township Auditorium Columbia, South Carolina 2/14/2016 (Schoeps CCM4V'S FOB)

Automated Mailer noreply-bt.e at etree.org
Mon Feb 15 07:36:39 UTC 2016


Band:           Widespread Panic
Torrent Name:   Widespread Panic Township Auditorium Columbia, South Carolina 2/14/2016 (Schoeps CCM4V'S FOB)
Uploaded by:    zmanatl
DB Link:        
Details:        http://bt.etree.org/details.php?id=585069

Contact the seeder at http://db.etree.org/zmanatl

If the link to this show does not work, it was probably removed for
being non-trade-friendly.

Description / text file:
-------------------------
Widespread Panic
Township Auditorium
Columbia, South Carolina
2/14/2016 

Source: Schoeps CCM4V's>Lunatec V2>Benchmark AD2K>
Sound Devices 722 (24/44)
FOB/DFC/KFC/ZFC/AARP 50' From Stage, 7 1/2' High
DSP: Sound Devices 722>Sound Forge 10.0>CD Wave>flac(16)
ID3 Tagged In Foobar 2000
Recorded By: Z-Man
Seeded By: Z-Man

Disc I 1st Set

01 Greeting
02 Old Neighborhood >
03 Who Do You Belong To?
04 Shut Up And Drive
05 Genesis 
06 Airplane >
07 Take-Off Jam >
08 Rebirtha >
09 Jam >
10 Impossible >
11 Last Straw >
12 Give

Disc II 2nd Set

01 Visiting Day 
02 Weight Of The World
03 Just Kissed My Baby >
04 Night People Rap >
05 Cream Puff War Jam >
06 Drivin' Song >
07 Ride Me High >

Disc III 2nd Set Con't

01 Drum Solo >
02 Bass And Drums >
03 Drivin'' Song >
04I'm Not Alone >
05 Honky Red
06 Sharon
Encore:
07 Dave Banter
08 *Bowlegged Woman >
09 Action Man
10 Let's Get The Show On The Road

* With Night People Rap

wsp2016-02-14d01t01.flac:3b31318fdcf19d4b49f8f538a680c817
wsp2016-02-14d01t02.flac:2893246c305153568a0316f24bfbcb3a
wsp2016-02-14d01t03.flac:929118d76b400c43b80229bf23991306
wsp2016-02-14d01t04.flac:3df4544d2ba76a1bdfe8e0139e0c0153
wsp2016-02-14d01t05.flac:ad13a3a889701113355ab1bbc719063d
wsp2016-02-14d01t06.flac:53ac71c367b915e7c85af3c42250f125
wsp2016-02-14d01t07.flac:31f31b515eec9fd3350973813d0f2bcc
wsp2016-02-14d01t08.flac:1950d247957c2571376a7eab0eff7ea5
wsp2016-02-14d01t09.flac:2ca48eada9f9969edf676673777eb83f
wsp2016-02-14d01t10.flac:428ba61c49c8a72746f5d4d0066d414b
wsp2016-02-14d01t11.flac:9725392a1123605aa3799353400628d2
wsp2016-02-14d01t12.flac:d313b5f65bea404edb249f2de18989ff
wsp2016-02-14d02t01.flac:1c977c00e9dd4eea1d8eca4ec879896e
wsp2016-02-14d02t02.flac:1d3515c09b850705db9feec47304888d
wsp2016-02-14d02t03.flac:ba329812dce5b836665a50f766981187
wsp2016-02-14d02t04.flac:a10a12d615e3b5fb5ecd2a0f0f3feacb
wsp2016-02-14d02t05.flac:d2c0ae1f46f0da3f37a47dd5a69d8dcf
wsp2016-02-14d02t06.flac:d0c4c5e16f7098b7d6d43e3b2092f257
wsp2016-02-14d02t07.flac:e0f394435a0cc499c93a1d3466fd5d5a
wsp2016-02-14d03t01.flac:61791aab0f0231143e2aed5ac514dedc
wsp2016-02-14d03t02.flac:1166d016f83a1ac16167b58c77aafab7
wsp2016-02-14d03t03.flac:7a58beffc40780af599f281261ac7287
wsp2016-02-14d03t04.flac:5a105471d1945f9824b0e3cc6749021f
wsp2016-02-14d03t05.flac:b1b872dd5f5e6ae52357cfdee8bac0a4
wsp2016-02-14d03t06.flac:366e470f8de18a4576aed152465fb16d
wsp2016-02-14d03t07.flac:3bbe50a6d7f194292cf403ef1089d060
wsp2016-02-14d03t08.flac:c7677ae64a92318ccdedf614b663497d
wsp2016-02-14d03t09.flac:0d289b4d4f9dcff8a9829becd5170ac6
wsp2016-02-14d03t10.flac:84b48cbed2e063e5206ff77e3f046476

length     expanded size    cdr  WAVE problems  fmt   ratio  filename
     0:27.12        4791068 B   ---   --   ---xx   flac  0.3502  wsp2016-02-14d01t01.flac
     6:26.64       68240972 B   ---   --   ---xx   flac  0.5271  wsp2016-02-14d01t02.flac
     5:13.23       55267340 B   ---   --   ---xx   flac  0.4888  wsp2016-02-14d01t03.flac
     8:34.20       90716684 B   ---   --   ---xx   flac  0.5119  wsp2016-02-14d01t04.flac
     6:05.47       64496588 B   ---   --   ---xx   flac  0.5193  wsp2016-02-14d01t05.flac
     5:33.05       58753004 B   ---   --   ---xx   flac  0.4932  wsp2016-02-14d01t06.flac
     7:44.09       81870812 B   ---   --   ---xx   flac  0.5266  wsp2016-02-14d01t07.flac
     7:29.07       79220108 B   ---   --   ---xx   flac  0.5360  wsp2016-02-14d01t08.flac
     3:36.73       38274140 B   ---   --   ---xx   flac  0.4712  wsp2016-02-14d01t09.flac
     5:32.12       58593068 B   ---   --   ---xx   flac  0.5354  wsp2016-02-14d01t10.flac
     5:00.35       53002364 B   ---   --   ---xx   flac  0.4991  wsp2016-02-14d01t11.flac
     5:24.58       57290060 B   ---   --   ---xx   flac  0.5407  wsp2016-02-14d01t12.flac
     7:37.07       80631308 B   ---   --   ---xx   flac  0.5142  wsp2016-02-14d02t01.flac
     5:29.32       58110908 B   ---   --   ---xx   flac  0.5345  wsp2016-02-14d02t02.flac
    10:57.12      115923068 B   ---   --   ---xx   flac  0.5334  wsp2016-02-14d02t03.flac
     5:28.54       57986252 B   ---   --   ---xx   flac  0.5014  wsp2016-02-14d02t04.flac
     3:34.06       37763756 B   ---   --   ---xx   flac  0.5153  wsp2016-02-14d02t05.flac
     4:23.12       46421468 B   ---   --   ---xx   flac  0.5319  wsp2016-02-14d02t06.flac
    14:56.50      158172044 B   ---   --   ---xx   flac  0.5471  wsp2016-02-14d02t07.flac
    10:16.39      108754172 B   ---   --   ---xx   flac  0.5219  wsp2016-02-14d03t01.flac
     6:30.54       68923052 B   ---   --   ---xx   flac  0.4984  wsp2016-02-14d03t02.flac
     6:50.53       72448700 B   ---   --   ---xx   flac  0.5073  wsp2016-02-14d03t03.flac
     2:57.33       31300460 B   ---   --   ---xx   flac  0.5341  wsp2016-02-14d03t04.flac
     8:43.31       92330156 B   ---   --   ---xx   flac  0.5124  wsp2016-02-14d03t05.flac
    10:27.72      110772188 B   ---   --   ---xx   flac  0.5188  wsp2016-02-14d03t06.flac
     0:53.56        9480956 B   ---   --   ---xx   flac  0.4842  wsp2016-02-14d03t07.flac
     8:47.44       93066332 B   ---   --   ---xx   flac  0.5344  wsp2016-02-14d03t08.flac
     5:11.53       54985100 B   ---   --   ---xx   flac  0.5807  wsp2016-02-14d03t09.flac
     9:15.14       97934972 B   ---   --   ---xx   flac  0.4694  wsp2016-02-14d03t10.flac
   189:29.12     2005521100 B                            0.5194  (29 files)





More information about the bittorrent mailing list