[bittorrent] wilco2016-02-02.pasternak.flac1644

Automated Mailer noreply-bt.e at etree.org
Sat Feb 13 18:25:54 UTC 2016


Band:           Wilco
Torrent Name:   wilco2016-02-02.pasternak.flac1644
Uploaded by:    nfagdtrfb
DB Link:        
Details:        http://bt.etree.org/details.php?id=585033

Contact the seeder at http://db.etree.org/nfagdtrfb

If the link to this show does not work, it was probably removed for
being non-trade-friendly.

Description / text file:
-------------------------
WILCO
Capitol Theatre
Portchester NY
02-02-2016

16bit/44.1kHz file-set

01 EKG
02 More…
03 Random Name Generator
04 The Joke Explained
05 You Satellite
06 Taste the Ceiling
07 Pickled Ginger
08 Where Do I Begin
09 Cold Slope
10 King Of You
11 Magnetized
12 Company In My Back
13 Handshake Drugs
14 Art Of Almost
15 stage talk
16 Box Full of Letters
17 stage talk
18 Heavy Metal Drummer
19 false start
20 I’m the Man Who Loves You
21 Dawned On Me
22 Impossible Germany
23 The Late Greats
24 stage talk
25 Red-Eyed and Blue
26 I Got You (At the End of the Century)
27 Outtasite (Outta Mind)
28 crowd
29 Spiders (Kidsmoke)
30 crowd
31 Misunderstood
32 It’s Just That Simple
33 Airline to Heaven [with William Tyler]
34 A Shot In the Arm [with William Tyler]

Microtech Gefell M210's > Oade M-248 > SD-722 > WAV 2448.
Mics on 7-foot stand in OTS, recording by Jon Pasternak.
WAV 2448 > Wavelab > CD-Wave (24bit) > R8Brain > TLH > FLAC 1644 tagged.

    length     expanded size    cdr  WAVE problems  fmt   ratio  filename
     1:18.65       13912124 B   ---   --   ---xx   flac  0.6376  wilco2016-02-02t01.flac
     2:50.34       30068012 B   ---   --   ---xx   flac  0.6429  wilco2016-02-02t02.flac
     4:16.67       45316028 B   ---   --   ---xx   flac  0.6577  wilco2016-02-02t03.flac
     2:38.41       27967676 B   ---   --   ---xx   flac  0.6185  wilco2016-02-02t04.flac
     5:37.49       59562092 B   ---   --   ---xx   flac  0.6397  wilco2016-02-02t05.flac
     3:34.19       37794332 B   ---   --   ---xx   flac  0.6140  wilco2016-02-02t06.flac
     2:39.40       28141724 B   ---   --   ---xx   flac  0.6068  wilco2016-02-02t07.flac
     3:12.15       33904124 B   ---   --   ---xx   flac  0.6006  wilco2016-02-02t08.flac
     3:13.17       34085228 B   ---   --   ---xx   flac  0.6128  wilco2016-02-02t09.flac
     2:41.27       28463948 B   ---   --   ---xx   flac  0.6669  wilco2016-02-02t10.flac
     4:24.36       46654316 B   ---   --   ---xx   flac  0.5549  wilco2016-02-02t11.flac
     4:02.54       42815852 B   ---   --   ---xx   flac  0.6306  wilco2016-02-02t12.flac
     5:35.73       59265740 B   ---   --   ---xx   flac  0.6470  wilco2016-02-02t13.flac
     8:16.33       87572060 B   ---   --   ---xx   flac  0.6610  wilco2016-02-02t14.flac
     1:45.73       18693740 B   ---   --   ---xx   flac  0.4865  wilco2016-02-02t15.flac
     3:11.58       33828860 B   ---   --   ---xx   flac  0.6924  wilco2016-02-02t16.flac
     0:43.30        7655804 B   ---   --   ---xx   flac  0.4885  wilco2016-02-02t17.flac
     3:07.37       33073868 B   ---   --   ---xx   flac  0.6916  wilco2016-02-02t18.flac
     0:50.72        8989388 B   ---   --   ---xx   flac  0.5314  wilco2016-02-02t19.flac
     3:55.09       41475212 B   ---   --   ---xx   flac  0.6748  wilco2016-02-02t20.flac
     3:55.07       41470508 B   ---   --   ---xx   flac  0.6658  wilco2016-02-02t21.flac
     7:51.23       83138540 B   ---   --   ---xx   flac  0.6289  wilco2016-02-02t22.flac
     2:50.19       30032732 B   ---   --   ---xx   flac  0.6444  wilco2016-02-02t23.flac
     1:08.51       12115196 B   ---   --   ---xx   flac  0.5163  wilco2016-02-02t24.flac
     2:13.64       23611772 B   ---   --   ---xx   flac  0.5613  wilco2016-02-02t25.flac
     3:59.05       42171404 B   ---   --   ---xx   flac  0.7116  wilco2016-02-02t26.flac
     2:43.16       28790876 B   ---   --   ---xx   flac  0.7167  wilco2016-02-02t27.flac
     4:37.70       49027484 B   ---   --   ---xx   flac  0.5053  wilco2016-02-02t28.flac
     9:33.35      101159564 B   ---   --   ---xx   flac  0.6558  wilco2016-02-02t29.flac
     2:22.41       25145276 B   ---   --   ---xx   flac  0.4882  wilco2016-02-02t30.flac
     4:03.48       42978140 B   ---   --   ---xx   flac  0.4825  wilco2016-02-02t31.flac
     4:40.33       49469660 B   ---   --   ---xx   flac  0.4975  wilco2016-02-02t32.flac
     5:18.69       56257532 B   ---   --   ---xx   flac  0.5790  wilco2016-02-02t33.flac
     4:50.66       51311276 B   ---   --   ---xx   flac  0.5189  wilco2016-02-02t34.flac
   128:06.46     1355920088 B                            0.6138  (34 files)

No errors occured.




More information about the bittorrent mailing list