[bittorrent] wilco2016-02-02.pasternak.flac2448

Automated Mailer noreply-bt.e at etree.org
Sat Feb 13 18:25:33 UTC 2016


Band:           Wilco
Torrent Name:   wilco2016-02-02.pasternak.flac2448
Uploaded by:    nfagdtrfb
DB Link:        
Details:        http://bt.etree.org/details.php?id=585032

Contact the seeder at http://db.etree.org/nfagdtrfb

If the link to this show does not work, it was probably removed for
being non-trade-friendly.

Description / text file:
-------------------------
WILCO
Capitol Theatre
Portchester NY
02-02-2016

24bit/48kHz file-set

01 EKG
02 More…
03 Random Name Generator
04 The Joke Explained
05 You Satellite
06 Taste the Ceiling
07 Pickled Ginger
08 Where Do I Begin
09 Cold Slope
10 King Of You
11 Magnetized
12 Company In My Back
13 Handshake Drugs
14 Art Of Almost
15 stage talk
16 Box Full of Letters
17 stage talk
18 Heavy Metal Drummer
19 false start
20 I’m the Man Who Loves You
21 Dawned On Me
22 Impossible Germany
23 The Late Greats
24 stage talk
25 Red-Eyed and Blue
26 I Got You (At the End of the Century)
27 Outtasite (Outta Mind)
28 crowd
29 Spiders (Kidsmoke)
30 crowd
31 Misunderstood
32 It’s Just That Simple
33 Airline to Heaven [with William Tyler]
34 A Shot In the Arm [with William Tyler]

Microtech Gefell M210's > Oade M-248 > SD-722 > WAV 2448.
Mics on 7-foot stand in OTS, recording by Jon Pasternak.
WAV 2448 > Wavelab > CD-Wave (24bit) > TLH > FLAC 2448 tagged.

    length     expanded size    cdr  WAVE problems  fmt   ratio  filename
     1:18.867      22713644 B   cxx   --   ---xx   flac  0.7397  wilco2016-02-02t01.flac
     2:50.453      49090604 B   cxx   --   ---xx   flac  0.7447  wilco2016-02-02t02.flac
     4:16.893      73985324 B   cxx   --   ---xx   flac  0.7548  wilco2016-02-02t03.flac
     2:38.547      45661484 B   cxx   --   ---xx   flac  0.7287  wilco2016-02-02t04.flac
     5:37.653      97244204 B   cxx   --   ---xx   flac  0.7420  wilco2016-02-02t05.flac
     3:34.253      61705004 B   cxx   --   ---xx   flac  0.7261  wilco2016-02-02t06.flac
     2:39.533      45945644 B   cxx   --   ---xx   flac  0.7204  wilco2016-02-02t07.flac
     3:12.200      55353644 B   cxx   --   ---xx   flac  0.7171  wilco2016-02-02t08.flac
     3:13.227      55649324 B   cxx   --   ---xx   flac  0.7249  wilco2016-02-02t09.flac
     2:41.360      46471724 B   cxx   --   ---xx   flac  0.7617  wilco2016-02-02t10.flac
     4:24.480      76170284 B   cxx   --   ---xx   flac  0.6866  wilco2016-02-02t11.flac
     4:02.720      69903404 B   cxx   --   ---xx   flac  0.7373  wilco2016-02-02t12.flac
     5:35.973      96760364 B   cxx   --   ---xx   flac  0.7475  wilco2016-02-02t13.flac
     8:16.440     142974764 B   cxx   --   ---xx   flac  0.7572  wilco2016-02-02t14.flac
     1:45.973      30520364 B   cxx   --   ---xx   flac  0.6409  wilco2016-02-02t15.flac
     3:11.773      55230764 B   cxx   --   ---xx   flac  0.7774  wilco2016-02-02t16.flac
     0:43.400      12499244 B   cxx   --   ---xx   flac  0.6417  wilco2016-02-02t17.flac
     3:07.493      53998124 B   cxx   --   ---xx   flac  0.7778  wilco2016-02-02t18.flac
     0:50.968      14678852 B   cxx   --   ---xx   flac  0.6694  wilco2016-02-02t19.flac
     3:55.120      67714604 B   cxx   --   ---xx   flac  0.7656  wilco2016-02-02t20.flac
     3:55.093      67706924 B   cxx   --   ---xx   flac  0.7603  wilco2016-02-02t21.flac
     7:51.307     135736364 B   cxx   --   ---xx   flac  0.7356  wilco2016-02-02t22.flac
     2:50.253      49033004 B   cxx   --   ---xx   flac  0.7451  wilco2016-02-02t23.flac
     1:08.680      19779884 B   cxx   --   ---xx   flac  0.6604  wilco2016-02-02t24.flac
     2:13.853      38549804 B   cxx   --   ---xx   flac  0.6904  wilco2016-02-02t25.flac
     3:59.067      68851244 B   cxx   --   ---xx   flac  0.7901  wilco2016-02-02t26.flac
     2:43.213      47005484 B   cxx   --   ---xx   flac  0.7935  wilco2016-02-02t27.flac
     4:37.933      80044844 B   cxx   --   ---xx   flac  0.6565  wilco2016-02-02t28.flac
     9:33.467     165158444 B   cxx   --   ---xx   flac  0.7529  wilco2016-02-02t29.flac
     2:22.547      41053484 B   cxx   --   ---xx   flac  0.6445  wilco2016-02-02t30.flac
     4:03.640      70168364 B   cxx   --   ---xx   flac  0.6418  wilco2016-02-02t31.flac
     4:40.440      80766764 B   cxx   --   ---xx   flac  0.6503  wilco2016-02-02t32.flac
     5:18.920      91849004 B   cxx   --   ---xx   flac  0.7027  wilco2016-02-02t33.flac
     4:50.859      83767484 B   cxx   --   ---xx   flac  0.6635  wilco2016-02-02t34.flac
   128:06.601    2213742464 B                            0.7258  (34 files)

No errors occured.




More information about the bittorrent mailing list