[bittorrent] Trout Steak Revival Variety Playhouse Atlanta, Georgia 2/12/2016 (Schoeps CCM4V'S FOB)

Automated Mailer noreply-bt.e at etree.org
Sat Feb 13 17:15:26 UTC 2016


Band:           Other
Torrent Name:   Trout Steak Revival Variety Playhouse Atlanta, Georgia 2/12/2016 (Schoeps CCM4V'S FOB)
Uploaded by:    zmanatl
DB Link:        
Details:        http://bt.etree.org/details.php?id=585031

Contact the seeder at http://db.etree.org/zmanatl

If the link to this show does not work, it was probably removed for
being non-trade-friendly.

Description / text file:
-------------------------
Trout Steak Revival
Variety Playhouse
Atlanta, Georgia
2/12/2016 

Source: Schoeps CCM4V's>Lunatec V2>Benchmark AD2K>
Sound Devices 722 (24/44)
FOB/DFC/KFC/ZFC/AARP Center Section, 5th Row, Between Seats 7 & 8, 7' High
DSP: Sound Devices 722>Sound Forge 10.0>CD Wave>flac(16)
ID3 Tagged In Foobar 2000
Recorded By: Z-Man
Seeded By: Z-Man

Disc I 

01 Wind On The Mountain
02 Ours For The Taking
03 Union Pacific
04 Oklahoma
05 Ever Since
06 Runaway
07 Rude
08 *Wine
09 Spirit

* With Adam Aijala Of Yonder Mountain String Band On Guitar

trout2016-02-12d01t01.flac:cc718ec5aaba34feab8bae3de0f0f748
trout2016-02-12d01t02.flac:f2192e65db3d771a9cc7dd792636e1a2
trout2016-02-12d01t03.flac:dee6be5d8c80cda07dda707d5eb190bd
trout2016-02-12d01t04.flac:77bce5d244e361bc86e02be55a4c8135
trout2016-02-12d01t05.flac:1d323a0df961290386a1c2ac9e29fc4a
trout2016-02-12d01t06.flac:71592cbc8966761624cfcda631d4c17d
trout2016-02-12d01t07.flac:ab73e51739fe619f60a4f9f890b58741
trout2016-02-12d01t08.flac:b36b7c9e9a2612ae0b8b1f284150f0e7
trout2016-02-12d01t09.flac:9514d05a58a8ed2b5a543f41f77f849c

length     expanded size    cdr  WAVE problems  fmt   ratio  filename
     3:34.59       37888412 B   ---   --   ---xx   flac  0.5079  trout2016-02-12d01t01.flac
     4:09.25       43982444 B   ---   --   ---xx   flac  0.4800  trout2016-02-12d01t02.flac
     4:03.30       42935804 B   ---   --   ---xx   flac  0.4896  trout2016-02-12d01t03.flac
     4:11.26       44337596 B   ---   --   ---xx   flac  0.4903  trout2016-02-12d01t04.flac
     3:57.39       41898572 B   ---   --   ---xx   flac  0.4378  trout2016-02-12d01t05.flac
     3:58.01       41985596 B   ---   --   ---xx   flac  0.5111  trout2016-02-12d01t06.flac
     5:15.55       55695404 B   ---   --   ---xx   flac  0.4473  trout2016-02-12d01t07.flac
     8:56.18       94592780 B   ---   --   ---xx   flac  0.5080  trout2016-02-12d01t08.flac
     5:02.04       53282252 B   ---   --   ---xx   flac  0.5100  trout2016-02-12d01t09.flac
    43:08.32      456598860 B                            0.4885  (9 files)

















More information about the bittorrent mailing list