[bittorrent] Yonder Mountain Stringband Variety Playhouse Atlanta, Georgia 2/12/2016 (Schoeps CCM4V'S FOB)

Automated Mailer noreply-bt.e at etree.org
Sat Feb 13 08:21:18 UTC 2016


Band:           Yonder Mountain String Band
Torrent Name:   Yonder Mountain Stringband Variety Playhouse Atlanta, Georgia 2/12/2016 (Schoeps CCM4V'S FOB)
Uploaded by:    zmanatl
DB Link:        
Details:        http://bt.etree.org/details.php?id=585021

Contact the seeder at http://db.etree.org/zmanatl

If the link to this show does not work, it was probably removed for
being non-trade-friendly.

Description / text file:
-------------------------
Yonder Mountain String Band
Variety Playhouse
Atlanta, Georgia
2/12/2016 

Source: Schoeps CCM4V's>Lunatec V2>Benchmark AD2K>
Sound Devices 722 (24/44)
FOB/DFC/KFC/ZFC/AARP Center Section, 5th Row, Between Seats 7 & 8, 7' High
DSP: Sound Devices 722>Sound Forge 10.0>CD Wave>flac(16)
ID3 Tagged In Foobar 2000
Recorded By: Z-Man
Seeded By: Z-Man

Disc I 1st Set

01 Greeting
02 Rambler's Anthem
03 Mental Breakdown
04 Idaho
05 High On A Hilltop
06 Amie
07 40 Miles To Denver 
08 This Lonesome Heart Of Mine
09 Gilpin Swing
10 *You're No Good
11 On The Run >
12 Left Me In A Hole >
13 On The Run

Disc II 2nd Set

01 Banter
02 Around You
03 Drawing A Melody
04 Black Sheep
05 Love Before You Can't
06 Life In The Fast Lane
07 Spanish Harlem Incident 
08 Winds On Fire
09 Criminal

Disc III 2nd Set Con't

01 White Freight-Liner Blues >
02 #Kentucky Mandolin >
03 Looking Back Over My Shoulder >
04 Sometimes I've Won >
05 White Freight-Liner Blues
Encore:
06 Tuning
07 Bulldog
08 ? 

* With Steve Foltz Of Trout Steak Revival On Mandolin
# With Casey Houlihan Of Trout Steak Revival On Bass

ymsb2016-02-12d01t01.flac:2bb3fa4e5c926020e16af00fa299c782
ymsb2016-02-12d01t02.flac:3c8775ecf2c6fdca5cc0d4e32e9ca898
ymsb2016-02-12d01t03.flac:b053555eb335d7c219bb08b2f231bbac
ymsb2016-02-12d01t04.flac:5caf25181a3e2fe59954563aff0cbdee
ymsb2016-02-12d01t05.flac:0cdd6a5c1206dd9d1f8e6c3bb66de079
ymsb2016-02-12d01t06.flac:5cb4e6231ea169aa9908fb72428ff290
ymsb2016-02-12d01t07.flac:4dd406f71e06c9d01d2e017d3ef23c3b
ymsb2016-02-12d01t08.flac:074c10653f54d5ec6587a1ae6ab56974
ymsb2016-02-12d01t09.flac:f695e7a9a4107e64cda5db2242e17a8f
ymsb2016-02-12d01t10.flac:53c8fe3d9a78bb93fc9f25da43bcc5fc
ymsb2016-02-12d01t11.flac:40ce9555bdc878fa29cf3c88d7d1006f
ymsb2016-02-12d01t12.flac:afa22c691ccc3d72ce0229021a773a0f
ymsb2016-02-12d01t13.flac:9bd74220aac5303333006e8d1e0aa813
ymsb2016-02-12d02t01.flac:c4f019059b1aa40f26c543c997f69dab
ymsb2016-02-12d02t02.flac:54b729c6931c04e4d0e5092ffe695220
ymsb2016-02-12d02t03.flac:45aec087b51222c313586014a24e6992
ymsb2016-02-12d02t04.flac:833cf88df86fe666eef32a188c43536b
ymsb2016-02-12d02t05.flac:6fbce0a8272c2b6f2dc0059d12eff273
ymsb2016-02-12d02t06.flac:d8aea66a041909106cdfb2db003afeac
ymsb2016-02-12d02t07.flac:96350d73ed4697a92c3c55c36a2d8772
ymsb2016-02-12d02t08.flac:a1560df9021260e6363cd326c1b9bee0
ymsb2016-02-12d02t09.flac:b0c3a23a0821a89350df5611c3e94403
ymsb2016-02-12d03t01.flac:f2157441bc7997048e3d462ab205f4ea
ymsb2016-02-12d03t02.flac:9514a0e0734c2167a984b8fcbcb16c1e
ymsb2016-02-12d03t03.flac:ba0ae0fe3f394cdbb13c5eb119915f3a
ymsb2016-02-12d03t04.flac:bfd92a50f08b0b6bed348de41e025aab
ymsb2016-02-12d03t05.flac:80152ba7716c7955144306c56fd9d947
ymsb2016-02-12d03t06.flac:592a2a25d2bbcd911b6cd70b059d9704
ymsb2016-02-12d03t07.flac:254963fd49cf58f2f495149315150a29
ymsb2016-02-12d03t08.flac:2b8f4ba3844f87107a54a9dee5e6efcb

 length     expanded size    cdr  WAVE problems  fmt   ratio  filename
     1:11.29       12592652 B   ---   --   ---xx   flac  0.4238  ymsb2016-02-12d01t01.flac
     3:47.43       40143980 B   ---   --   ---xx   flac  0.4430  ymsb2016-02-12d01t02.flac
     4:44.04       50107052 B   ---   --   ---xx   flac  0.4374  ymsb2016-02-12d01t03.flac
     3:08.52       33285548 B   ---   --   ---xx   flac  0.4364  ymsb2016-02-12d01t04.flac
     4:28.37       47362268 B   ---   --   ---xx   flac  0.4279  ymsb2016-02-12d01t05.flac
     5:02.09       53294012 B   ---   --   ---xx   flac  0.4403  ymsb2016-02-12d01t06.flac
     4:39.06       49229756 B   ---   --   ---xx   flac  0.4569  ymsb2016-02-12d01t07.flac
     2:29.34       26363612 B   ---   --   ---xx   flac  0.4618  ymsb2016-02-12d01t08.flac
     7:46.39       82294172 B   ---   --   ---xx   flac  0.4406  ymsb2016-02-12d01t09.flac
     8:51.22       93720188 B   ---   --   ---xx   flac  0.4542  ymsb2016-02-12d01t10.flac
    12:51.22      136056188 B   ---   --   ---xx   flac  0.4551  ymsb2016-02-12d01t11.flac
     5:43.53       60629900 B   ---   --   ---xx   flac  0.4779  ymsb2016-02-12d01t12.flac
     6:29.09       68640812 B   ---   --   ---xx   flac  0.4635  ymsb2016-02-12d01t13.flac
     1:12.19       12745532 B   ---   --   ---xx   flac  0.3874  ymsb2016-02-12d02t01.flac
     8:32.06       90330956 B   ---   --   ---xx   flac  0.4713  ymsb2016-02-12d02t02.flac
     5:54.60       62586764 B   ---   --   ---xx   flac  0.4806  ymsb2016-02-12d02t03.flac
     7:29.30       79274204 B   ---   --   ---xx   flac  0.4598  ymsb2016-02-12d02t04.flac
     5:33.18       58783580 B   ---   --   ---xx   flac  0.4645  ymsb2016-02-12d02t05.flac
     4:52.35       51591164 B   ---   --   ---xx   flac  0.4752  ymsb2016-02-12d02t06.flac
     3:19.33       35181260 B   ---   --   ---xx   flac  0.4930  ymsb2016-02-12d02t07.flac
     3:30.66       37199276 B   ---   --   ---xx   flac  0.4485  ymsb2016-02-12d02t08.flac
     6:05.55       64515404 B   ---   --   ---xx   flac  0.4773  ymsb2016-02-12d02t09.flac
     8:38.13       91405820 B   ---   --   ---xx   flac  0.4649  ymsb2016-02-12d03t01.flac
    11:00.60      116565164 B   ---   --   ---xx   flac  0.4481  ymsb2016-02-12d03t02.flac
     8:30.74       90138092 B   ---   --   ---xx   flac  0.4787  ymsb2016-02-12d03t03.flac
     3:37.69       38441132 B   ---   --   ---xx   flac  0.5130  ymsb2016-02-12d03t04.flac
     6:41.51       70856396 B   ---   --   ---xx   flac  0.4888  ymsb2016-02-12d03t05.flac
     1:17.17       13622828 B   ---   --   ---xx   flac  0.3596  ymsb2016-02-12d03t06.flac
     8:37.35       91281164 B   ---   --   ---xx   flac  0.4395  ymsb2016-02-12d03t07.flac
     4:01.47       42622988 B   ---   --   ---xx   flac  0.4872  ymsb2016-02-12d03t08.flac
   170:08.72     1800861864 B                            0.4599  (30 files)




More information about the bittorrent mailing list