[bittorrent] Control Burn Red Light Cafe Atlanta, Georgia 2/11/2016 (Schoeps CCM4V'S FOB)

Automated Mailer noreply-bt.e at etree.org
Fri Feb 12 18:59:56 UTC 2016


Band:           Other
Torrent Name:   Control Burn Red Light Cafe Atlanta, Georgia 2/11/2016 (Schoeps CCM4V'S FOB)
Uploaded by:    zmanatl
DB Link:        
Details:        http://bt.etree.org/details.php?id=585012

Contact the seeder at http://db.etree.org/zmanatl

If the link to this show does not work, it was probably removed for
being non-trade-friendly.

Description / text file:
-------------------------
Control Burn
Red Light Cafe
Atlanta, Georgia
2/11/2016 

Source: Schoeps CCM4V's>Lunatec V2>Benchmark AD2K>
Sound Devices 722 (24/44)
FOB/DFC/KFC/ZFC/AARP Stage Lip, 7' High
DSP: Sound Devices 722>Sound Forge 10.0>CD Wave>flac(16)
ID3 Tagged In Foobar 2000
Recorded By: Z-Man
Seeded By: Z-Man

Disc I 

01 Instrumental
02 Tennesssee Border
03 Instrumental
04 Home In San Antone
05 Instrumental
06 ?
07 Erin's Song
08 ?
09 Rex's Blues
10 Devil Head Gap
11 Nashville Pickin'
12 Band Introductions
13 Head Waters
14 Whippin' Post

Harris Kendrick - Guitar And Vocals
Jay Moore - Mandolin And Vocals
Tyler Kufta - Bass

control2016-02-11d01t01.flac:76e4b8080a7dbeb1fc54da04f2c9346b
control2016-02-11d01t02.flac:87f06820e81ebd5744ffe249d4eaf4b2
control2016-02-11d01t03.flac:a1967d912a866a9249e07b56ed28f050
control2016-02-11d01t04.flac:cc362d28bcfb2dd9b80ab9ea38a831c7
control2016-02-11d01t05.flac:4786de68f9a21b6da6c7a34cf6de67f2
control2016-02-11d01t06.flac:0013858e3e2a98bb761e486fb7dbcdb0
control2016-02-11d01t07.flac:04870266742ff3e6f81cdd7f06e60364
control2016-02-11d01t08.flac:21a63fd148189987e801cb96e97cee47
control2016-02-11d01t09.flac:9408b73068ff954b4eed0510ef2c4463
control2016-02-11d01t10.flac:e8edd459a2b906d09fa6aa0a095b7c13
control2016-02-11d01t11.flac:846719273a2278f9f7d9e6e7974dafb8
control2016-02-11d01t12.flac:426f9fbf774e39b4209a0c9f867e349c
control2016-02-11d01t13.flac:ba29a724b27438d8a324845da3dc39b6
control2016-02-11d01t14.flac:8bcb2386d5af93dee7a87b915e9c5c64

 length     expanded size    cdr  WAVE problems  fmt   ratio  filename
     3:56.17       41670428 B   ---   --   ---xx   flac  0.3364  control2016-02-11d01t01.flac
     2:28.02       26111948 B   ---   --   ---xx   flac  0.4059  control2016-02-11d01t02.flac
     4:24.06       46583756 B   ---   --   ---xx   flac  0.4077  control2016-02-11d01t03.flac
     3:19.51       35223596 B   ---   --   ---xx   flac  0.4032  control2016-02-11d01t04.flac
     4:43.00       49921244 B   ---   --   ---xx   flac  0.3884  control2016-02-11d01t05.flac
     5:21.53       56749100 B   ---   --   ---xx   flac  0.3792  control2016-02-11d01t06.flac
     4:30.54       47755052 B   ---   --   ---xx   flac  0.3907  control2016-02-11d01t07.flac
     3:54.32       41352908 B   ---   --   ---xx   flac  0.4324  control2016-02-11d01t08.flac
     3:45.38       39779420 B   ---   --   ---xx   flac  0.3896  control2016-02-11d01t09.flac
     4:39.19       49260332 B   ---   --   ---xx   flac  0.3974  control2016-02-11d01t10.flac
     3:10.08       33534860 B   ---   --   ---xx   flac  0.4228  control2016-02-11d01t11.flac
     1:20.41       14208476 B   ---   --   ---xx   flac  0.3804  control2016-02-11d01t12.flac
     4:19.52       45809948 B   ---   --   ---xx   flac  0.3971  control2016-02-11d01t13.flac
     4:13.00       44629244 B   ---   --   ---xx   flac  0.4498  control2016-02-11d01t14.flac
    54:05.73      572590312 B                            0.3985  (14 files)












More information about the bittorrent mailing list