[bittorrent] Jon Stickley Trio Red Light Cafe Atlanta, Georgia 2/11/2016 (Schoeps CCM4V'S FOB)

Automated Mailer noreply-bt.e at etree.org
Fri Feb 12 16:50:21 UTC 2016


Band:           Other
Torrent Name:   Jon Stickley Trio Red Light Cafe Atlanta, Georgia 2/11/2016 (Schoeps CCM4V'S FOB)
Uploaded by:    zmanatl
DB Link:        
Details:        http://bt.etree.org/details.php?id=585009

Contact the seeder at http://db.etree.org/zmanatl

If the link to this show does not work, it was probably removed for
being non-trade-friendly.

Description / text file:
-------------------------
Jon Stickley Trio
Red Light Cafe
Atlanta, Georgia
2/11/2016 

Source: Schoeps CCM4V's>Lunatec V2>Benchmark AD2K>
Sound Devices 722 (24/44)
FOB/DFC/KFC/ZFC/AARP Stage Lip, 7' High
DSP: Sound Devices 722>Sound Forge 10.0>CD Wave>flac(16)
ID3 Tagged In Foobar 2000
Recorded By: Z-Man
Seeded By: Z-Man

Disc I 

01 Blackburn
02 Rice Dream >
03 Never Stop
04 High Road
05 New Song ?
06 Manzanita
07 Echo Location
08 Darth Radar
09 Happy Birthday Patrick And Jon
10 Goa

Disc II 

01 Palm Tree
02 Octopickin'
03 Slopes
04 Band Introductions
05 Drum Intro > 
06 Thrones > 
07 Point To Point
08 Tico Tico
09 Pamlico Sound >
10 Blackberry Blossom
11 Flight Of The Durban 

Jon Stickley - Guitar And Vocals
Lyndsay Pruett - Fiddle And Vocals
Patrick Armitage - Drums

jon2016-02-11d01t01.flac:66f9fa7502506b6905d8360950cb7fa4
jon2016-02-11d01t02.flac:5128ed8e1e1076663e4dc449743163d2
jon2016-02-11d01t03.flac:00cc1e9d3299bab3da3e0d68065e9581
jon2016-02-11d01t04.flac:a6cf6c17147dceaf7436364e5c1c9120
jon2016-02-11d01t05.flac:097185aea7f01aeee71f3575e8427dd0
jon2016-02-11d01t06.flac:66b2a1477016dab6eab5574c7e3b9262
jon2016-02-11d01t07.flac:c0d7855c0fbf7061ed887899994bf3bf
jon2016-02-11d01t08.flac:1d840cfdb9e5c0dae9beb5d609e3de97
jon2016-02-11d01t09.flac:9b65e8d17c858cd21aefc007d38b6061
jon2016-02-11d01t10.flac:ac3947c1f95fa6fb49fccd093431a135
jon2016-02-11d02t01.flac:a17eb3d7fc386775fefae7be2065f21b
jon2016-02-11d02t02.flac:63a6e01fc06d9bc7b25f860f7bbc995f
jon2016-02-11d02t03.flac:7e227937720e16debd1bc632ba1ad80a
jon2016-02-11d02t04.flac:9a291b46465b370fc4b693da6506e100
jon2016-02-11d02t05.flac:42706c8dadd7fed6e9754d0742e191cb
jon2016-02-11d02t06.flac:b0e69522366952b90eb0fe46621d7f66
jon2016-02-11d02t07.flac:9fd86daa3938c1c7dee1f0d82656c35c
jon2016-02-11d02t08.flac:8ecc99d6661c3444429b94963e9bc4cb
jon2016-02-11d02t09.flac:218cb3e766d678eb66cbfb4a065a01e0
jon2016-02-11d02t10.flac:23802ca692916a5d1d33842d79b297c6
jon2016-02-11d02t11.flac:51933a77e2106d63972a66cef04fa767

 length     expanded size    cdr  WAVE problems  fmt   ratio  filename
     4:35.20       48557084 B   ---   --   ---xx   flac  0.5403  jon2016-02-11d01t01.flac
     6:38.69       70369532 B   ---   --   ---xx   flac  0.5053  jon2016-02-11d01t02.flac
     3:30.50       37161644 B   ---   --   ---xx   flac  0.5326  jon2016-02-11d01t03.flac
     6:48.36       72055916 B   ---   --   ---xx   flac  0.4535  jon2016-02-11d01t04.flac
     4:27.00       47098844 B   ---   --   ---xx   flac  0.5040  jon2016-02-11d01t05.flac
     4:06.02       43399148 B   ---   --   ---xx   flac  0.4916  jon2016-02-11d01t06.flac
     4:46.18       50492780 B   ---   --   ---xx   flac  0.5202  jon2016-02-11d01t07.flac
     5:10.27       54747548 B   ---   --   ---xx   flac  0.5629  jon2016-02-11d01t08.flac
     1:56.28       20528300 B   ---   --   ---xx   flac  0.2898  jon2016-02-11d01t09.flac
     6:45.09       71463212 B   ---   --   ---xx   flac  0.4182  jon2016-02-11d01t10.flac
     4:53.50       51802844 B   ---   --   ---xx   flac  0.5306  jon2016-02-11d02t01.flac
     5:42.05       60340604 B   ---   --   ---xx   flac  0.4263  jon2016-02-11d02t02.flac
     9:05.48       96250940 B   ---   --   ---xx   flac  0.5361  jon2016-02-11d02t03.flac
     1:23.33       14718860 B   ---   --   ---xx   flac  0.2605  jon2016-02-11d02t04.flac
     0:27.02        4767548 B   ---   --   ---xx   flac  0.5178  jon2016-02-11d02t05.flac
     4:01.51       42632396 B   ---   --   ---xx   flac  0.5584  jon2016-02-11d02t06.flac
     5:32.41       58661276 B   ---   --   ---xx   flac  0.4928  jon2016-02-11d02t07.flac
     4:08.49       43862492 B   ---   --   ---xx   flac  0.4894  jon2016-02-11d02t08.flac
     4:15.34       45062012 B   ---   --   ---xx   flac  0.3717  jon2016-02-11d02t09.flac
     5:26.04       57515852 B   ---   --   ---xx   flac  0.5519  jon2016-02-11d02t10.flac
     5:11.59       54999212 B   ---   --   ---xx   flac  0.5487  jon2016-02-11d02t11.flac
    98:52.35     1046488044 B                            0.4933  (21 files)




















More information about the bittorrent mailing list