[bittorrent] gd1983-10-22.135184.mtx.dusborne.flac16

Automated Mailer noreply-bt.e at etree.org
Thu Feb 11 22:48:04 UTC 2016


Band:           Grateful Dead
Torrent Name:   gd1983-10-22.135184.mtx.dusborne.flac16
Uploaded by:    greendude
DB Link:        http://db.etree.org/shn/135184
Details:        http://bt.etree.org/details.php?id=584993

Contact the seeder at http://db.etree.org/greendude

If the link to this show does not work, it was probably removed for
being non-trade-friendly.

Description / text file:
-------------------------
-----THANKS TO DUSBORNE FOR SHARING-----


Grateful Dead
October 22, 1983
The Carrier Dome
Syracuse, N.Y.

2 Source Matrix

Soundboard (shnid:17274)
---------------------------------------------------------------------------------------------
gd83-10-22.17274.sbd.drgseeds.sbeok.t-flac16

Lineage:  SBD > Cassette Master > Cassette > Dat > CDR > SHN

notes:
No NR of any kind was used in the production of these discs.
All editing was performed with Cool Edit Pro I made several 
splices to patch cassette flips using the etree audience version 
of this show  and used many different technics to make these 
splices as transparent as possible.  Patches are 
found on the following tracks:

d2t05      0:18.45  -->    0:27.09

d3t04      3:51.06  -->    3:56.30  

I would like to thank my friend Bob for getting me the etree 
discs to make the patches and thank whomever took the time to 
record these wonderful audience tapes and also those responsible
for gettng them over to the folks at etree.  

Flac encoding notes:
All processing with Trader's Little Helper
Shn - st5 generated
Shn > Flac ( level 8 )
Flac - st5 generated and matched to Shn st5
B. Proctor 4-29-12

Audience (shnid:88725)
--------------------------------------------------------------------------------------------
gd1983-10-22.fob.senn421.coyotte.muletaper.88725.sbeok.flac16

Source:Sennheiser-MD421's>Sony D5
Location: FOB-6th Row DFC @8 ft high on stand
Taper: Rick "Coyotte" Colyard
Psycho Acoustical Productions
Released 11-23-2007
2 Maxell SA-X90-Cassette MASTERS


Transfer:MAC> Sony TCW-21(Analog out)>Edirol Digi-Mod UA5 at 44.1khz>Digital-Optical out>>Nomad JB3 at 44.1khz>WAV>Poulderbits Sound Editor for (fades/cuts)>FlacFrontend (level-8)>flac-16
Transfered and Edited by MULETAPER- 11/23/07
------------------------------------------------------------------------------------------------------
---Thank you drgseeds for your work on the SBD.
---Thank you Bob for the SBD discs.
---Thank you Rick "Coyotte" Colyard for recording the show.
---Thank you Muletaper for your work on the AUD.
---Thank you Germain for your advice, encouragement, guidance and seeding.

Matrix by dusborne

07-10-2015
--------------------------------------------------------------------------------------------------------

                    
Set 1

101 - gd83-10-22s1t01 - Tuning     
102 - gd83-10-22s1t02 - Shakedown Street             
103 - gd83-10-22s1t03 - Wang Dang Doodle              
104 - gd83-10-22s1t04 - Candyman                      
105 - gd83-10-22s1t05 - New Minglewood Blues              
106 - gd83-10-22s1t06 - Bird Song                    
107 - gd83-10-22s1t07 - Hell in a Bucket              
108 - gd83-10-22s1t08 - Keep Your Day Job                       

Set 2

201 - gd83-10-22s2t01 - Tuning
202 - gd83-10-22s2t02 - China Cat Sunflower ->                   
203 - gd83-10-22s2t03 - I Know You Rider              
204 - gd83-10-22s2t04 - Man Smart (Women Are Smarter) ->           
205 - gd83-10-22s2t05 - Terrapin Station ->           
206 - gd83-10-22s2t06 - Hofmann's Snappy Jam- >                         
207 - gd83-10-22s2t07 - Drums ->                       
208 - gd83-10-22s2t08 - Space ->                      
209 - gd83-10-22s2t09 - The Wheel ->                   
210 - gd83-10-22s2t10 - Throwing Stones ->             
211 - gd83-10-22s2t11 - Not Fade Away ->               
212 - gd83-10-22s2t12 - One More Saturday Night       

Encore
213 - gd83-10-22s2t13 - Revolution 
----------------------------------------------------------------------------------------------------------
                   
Tagging notes:
Show information is embedded within the header of each flac file. 
It will display on any player capable of directly playing flac 
files. If converted to wav during processing, all tags will be 
stripped, however audio data will remain unaffected. If you must 
transcode to a lossy format, do so directly Flac > Lossy.
Use st5 to validate audio integrity.
Md5 values will change if tagging is altered.
Dave Usborne 07-10-2015
----------------------------------------------------------------------------------------------------------
length     expanded size    cdr  WAVE problems  fmt   ratio  filename
     0:45.47        8048588 B   ---   --   ---xx   flac  0.5116  gd83-10-22s1t01.flac
    14:56.53      158179100 B   ---   --   ---xx   flac  0.5985  gd83-10-22s1t02.flac
     7:34.63       80233820 B   ---   --   ---xx   flac  0.5766  gd83-10-22s1t03.flac
     7:22.15       78004124 B   ---   --   ---xx   flac  0.5914  gd83-10-22s1t04.flac
     9:09.24       96900092 B   ---   --   ---xx   flac  0.6096  gd83-10-22s1t05.flac
    12:42.34      134496812 B   ---   --   ---xx   flac  0.5765  gd83-10-22s1t06.flac
     5:54.31       62518556 B   ---   --   ---xx   flac  0.6052  gd83-10-22s1t07.flac
     5:26.22       57558188 B   ---   --   ---xx   flac  0.6029  gd83-10-22s1t08.flac
     0:30.23        5346140 B   ---   --   ---xx   flac  0.4684  gd83-10-22s2t01.flac
     7:12.62       76350668 B   ---   --   ---xx   flac  0.5857  gd83-10-22s2t02.flac
     6:02.47       63967388 B   ---   --   ---xx   flac  0.5947  gd83-10-22s2t03.flac
     7:57.02       84147548 B   ---   --   ---xx   flac  0.5922  gd83-10-22s2t04.flac
    12:11.46      129056636 B   ---   --   ---xx   flac  0.6097  gd83-10-22s2t05.flac
     3:11.25       33751244 B   ---   --   ---xx   flac  0.5866  gd83-10-22s2t06.flac
     8:35.13       90876620 B   ---   --   ---xx   flac  0.5950  gd83-10-22s2t07.flac
    17:07.05      181174604 B   ---   --   ---xx   flac  0.5246  gd83-10-22s2t08.flac
     7:05.43       75071180 B   ---   --   ---xx   flac  0.5946  gd83-10-22s2t09.flac
     8:09.55       86389004 B   ---   --   ---xx   flac  0.6140  gd83-10-22s2t10.flac
     7:19.08       77458460 B   ---   --   ---xx   flac  0.6012  gd83-10-22s2t11.flac
     5:49.02       61568348 B   ---   --   ---xx   flac  0.5685  gd83-10-22s2t12.flac
     4:54.10       51885164 B   ---   --   ---xx   flac  0.6017  gd83-10-22s2t13.flac
   159:57.30     1692982284 B                            0.5868  (21 files)



More information about the bittorrent mailing list