[bittorrent] Sam Holt Band Live Wire Athens, Georgia 2/10/2016 (Schoeps CCM4V'S FOB)

Automated Mailer noreply-bt.e at etree.org
Thu Feb 11 22:40:39 UTC 2016


Band:           Sam Holt Band
Torrent Name:   Sam Holt Band Live Wire Athens, Georgia 2/10/2016 (Schoeps CCM4V'S FOB)
Uploaded by:    zmanatl
DB Link:        
Details:        http://bt.etree.org/details.php?id=584992

Contact the seeder at http://db.etree.org/zmanatl

If the link to this show does not work, it was probably removed for
being non-trade-friendly.

Description / text file:
-------------------------
Sam Holt Band
Live Wire
Athens, Georgia
2/10/2016 

Source: Schoeps CCM4V's>Lunatec V2>Benchmark AD2K>
Sound Devices 722 (24/44)
FOB/DFC/KFC/ZFC/AARP 29' From Stage, 8' High
DSP: Sound Devices 722>Sound Forge 10.0>CD Wave>flac(16)
ID3 Tagged In Foobar 2000
Recorded By: Z-Man
Seeded By: Z-Man

Disc I 

01 Burned Faceless >
02 Happy
03 No Matter What 
04 Down
05 Don't Tell The Band >
06 E On A G >
07 Solitude >

Disc II 

01 Raise The Roof >
02 One Kind Favor Jam 
03 Sandbox >
04 90
05 You'll Be Fine >
06 The Waker >
07 Jam

samholt2016-02-10d01t01.flac:b9812cd2f7b7253c517b51ec60e0342b
samholt2016-02-10d01t02.flac:ec8377b9df6f7061db68ddfc84fff6ae
samholt2016-02-10d01t03.flac:dd1a34a29d780fecfc99180191bf10c8
samholt2016-02-10d01t04.flac:906834511ee4ed5f6281a1846943fcf9
samholt2016-02-10d01t05.flac:77a9031e32c01caf8be11812c5e97be1
samholt2016-02-10d01t06.flac:1fa73c1bd9d72a23bc2489e32abb303a
samholt2016-02-10d01t07.flac:b848216b52684af354b4f1f6dca69d40
samholt2016-02-10d02t01.flac:e72d16fbcdaf7026cdcbce5408a085af
samholt2016-02-10d02t02.flac:45e0199deda4cc8ec7dddeda69e4d709
samholt2016-02-10d02t03.flac:d6766bdab839215c4944ff9a8b30fad1
samholt2016-02-10d02t04.flac:a1838465c48fc97fcd867801d3b8aace
samholt2016-02-10d02t05.flac:593cc4f76d590d7edf6c87f9f57fdb78
samholt2016-02-10d02t06.flac:de43866f02e55133d7fdf8eef3dfc3ec
samholt2016-02-10d02t07.flac:10e317ec032f831a6bc7ca2b937eac5f

length     expanded size    cdr  WAVE problems  fmt   ratio  filename
     4:28.20       47322284 B   ---   --   ---xx   flac  0.4825  samholt2016-02-10d01t01.flac
     9:04.54       96088652 B   ---   --   ---xx   flac  0.4691  samholt2016-02-10d01t02.flac
    10:01.46      106124636 B   ---   --   ---xx   flac  0.4417  samholt2016-02-10d01t03.flac
     6:06.63       64710620 B   ---   --   ---xx   flac  0.4301  samholt2016-02-10d01t04.flac
     5:09.01       54509996 B   ---   --   ---xx   flac  0.4480  samholt2016-02-10d01t05.flac
    12:34.44      133109132 B   ---   --   ---xx   flac  0.4785  samholt2016-02-10d01t06.flac
     7:48.09       82576412 B   ---   --   ---xx   flac  0.4875  samholt2016-02-10d01t07.flac
     8:29.69       89949932 B   ---   --   ---xx   flac  0.4565  samholt2016-02-10d02t01.flac
     6:22.24       67441292 B   ---   --   ---xx   flac  0.4458  samholt2016-02-10d02t02.flac
     7:50.46       83016236 B   ---   --   ---xx   flac  0.4736  samholt2016-02-10d02t03.flac
    10:33.43      111762380 B   ---   --   ---xx   flac  0.4485  samholt2016-02-10d02t04.flac
     3:22.34       35712812 B   ---   --   ---xx   flac  0.4319  samholt2016-02-10d02t05.flac
     6:20.01       67034396 B   ---   --   ---xx   flac  0.4847  samholt2016-02-10d02t06.flac
     2:29.22       26335388 B   ---   --   ---xx   flac  0.4357  samholt2016-02-10d02t07.flac
   100:41.26     1065694168 B                            0.4607  (14 files)




















More information about the bittorrent mailing list