[bittorrent] Widespread Panic Classic Center Theatre Athens, Georgia 2/10/2016 (Schoeps CCM4V'S)

Automated Mailer noreply-bt.e at etree.org
Thu Feb 11 20:36:00 UTC 2016


Band:           Widespread Panic
Torrent Name:   Widespread Panic Classic Center Theatre Athens, Georgia 2/10/2016 (Schoeps CCM4V'S)
Uploaded by:    zmanatl
DB Link:        
Details:        http://bt.etree.org/details.php?id=584989

Contact the seeder at http://db.etree.org/zmanatl

If the link to this show does not work, it was probably removed for
being non-trade-friendly.

Description / text file:
-------------------------
Widespread Panic
Classic Center Theatre
Athens, Georgia
2/10/2016 

Source: Schoeps CCM4V's>Lunatec V2>Benchmark AD2K>
Sound Devices 722 (24/44)
EWB/DFC/KFC/ZFC/AARP Section 102, Row O, Seat 108, 6 1/2' High
DSP: Sound Devices 722>Sound Forge 10.0>CD Wave>flac(16)
ID3 Tagged In Foobar 2000
Recorded By: Z-Man
Seeded By: Z-Man

Disc I 1st Set

01 Sell Sell Sell
02 Chainsaw City >
03 Blackout Blues
04 Christmas Katie >
05 Travelin' Light
06 One-Arm Steve
07 Pigeons
08 *Degenerate
09 #For What It's Worth

Disc II 2nd Set

01 *Fishin'
02 *This Cruel Thing
03 @City Of Dreams
04 Holden Oversoul >
05 Jam >
06 All Time Low
07 Steven's Cat >
08 North
09 Greta >

Disc III 2nd Set Con't

01 Drums And Bass >
02 Drum Solo >
03 Jam >
04 Saint Ex 
05 @Don't Be Denied
06 #Mr. Soul
Encore:
07 @Ain't Life Grand
08 Fishwater

* With John Keane On Acoustic Guitar And Vocals
# With John Keane On Electric Guitar 
@ With John Keane On Pedal Steel

wsp2016-02-10d01t01.flac:76837d565fc29efc10274ef04fe8f525
wsp2016-02-10d01t02.flac:7188707bb1a2dc8bfa5ff9dbd2017908
wsp2016-02-10d01t03.flac:ffccf4543db5cb5211037b83921032a3
wsp2016-02-10d01t04.flac:375a192416db0ea9b927c641398ed223
wsp2016-02-10d01t05.flac:41ed6408edbdaf366e075067a759e056
wsp2016-02-10d01t06.flac:47bb91d06f8ebfcfa6b0194fa8072201
wsp2016-02-10d01t07.flac:9781e74d59b28d91123142dba12196d1
wsp2016-02-10d01t08.flac:fb533974d7665ccae06fefb183481837
wsp2016-02-10d01t09.flac:5807b268fc13b65f9de1d3f748252218
wsp2016-02-10d02t01.flac:4e3de43bed768146e45031c2d0398f30
wsp2016-02-10d02t02.flac:f8cd830320aa615f1747f2b88cffdb11
wsp2016-02-10d02t03.flac:ba906e37a9ec993a37c393a5a328e4ce
wsp2016-02-10d02t04.flac:d62e2ffbc2c90b7f497f2cd685a6fdc4
wsp2016-02-10d02t05.flac:1618424115cd0e33529c120a7cd82b67
wsp2016-02-10d02t06.flac:4d57f3a5a5afa0e16520b5e34b7cca4e
wsp2016-02-10d02t07.flac:19d5956318a201a32d03f148507d62f4
wsp2016-02-10d02t08.flac:280265ac826e14c48b41b63ec19ac073
wsp2016-02-10d02t09.flac:559c33e2ec3277e19968ecccfd79dbcb
wsp2016-02-10d03t01.flac:06add3262e9fbf4e00fcf02273f0d547
wsp2016-02-10d03t02.flac:138cd7d5534a7961d8c1f6d90c56bb3a
wsp2016-02-10d03t03.flac:3a5acf6d31a722bee22e1182659ac19d
wsp2016-02-10d03t04.flac:a84d8e6f469665bd89991cd0d9f3e004
wsp2016-02-10d03t05.flac:b2ae33a36b9e74d82a9f8e75a0dea431
wsp2016-02-10d03t06.flac:a9c5fe00fd4e5576d7516cf859967f18
wsp2016-02-10d03t07.flac:7854d85e9131b7561162733752ed5a11
wsp2016-02-10d03t08.flac:c8b9c52d4a99ea203b98086da6a7a517

 length     expanded size    cdr  WAVE problems  fmt   ratio  filename
     7:08.30       75569804 B   ---   --   ---xx   flac  0.5490  wsp2016-02-10d01t01.flac
     9:03.02       95789948 B   ---   --   ---xx   flac  0.5497  wsp2016-02-10d01t02.flac
     8:06.01       85732796 B   ---   --   ---xx   flac  0.5335  wsp2016-02-10d01t03.flac
     8:51.13       93699020 B   ---   --   ---xx   flac  0.4920  wsp2016-02-10d01t04.flac
     5:56.44       62901932 B   ---   --   ---xx   flac  0.5290  wsp2016-02-10d01t05.flac
     3:54.00       41277644 B   ---   --   ---xx   flac  0.5315  wsp2016-02-10d01t06.flac
     9:21.68       99120380 B   ---   --   ---xx   flac  0.5361  wsp2016-02-10d01t07.flac
     7:51.30       83155004 B   ---   --   ---xx   flac  0.4832  wsp2016-02-10d01t08.flac
     8:54.07       94214108 B   ---   --   ---xx   flac  0.5375  wsp2016-02-10d01t09.flac
     7:37.07       80631308 B   ---   --   ---xx   flac  0.4659  wsp2016-02-10d02t01.flac
     6:42.32       70988108 B   ---   --   ---xx   flac  0.4778  wsp2016-02-10d02t02.flac
     0:19.11        3377516 B   ---   --   ---xx   flac  0.3467  wsp2016-02-10d02t03.flac
     7:40.55       81273404 B   ---   --   ---xx   flac  0.4733  wsp2016-02-10d02t04.flac
     5:36.43       59371580 B   ---   --   ---xx   flac  0.5559  wsp2016-02-10d02t05.flac
     6:31.63       69120620 B   ---   --   ---xx   flac  0.5384  wsp2016-02-10d02t06.flac
     5:19.11       56297516 B   ---   --   ---xx   flac  0.5509  wsp2016-02-10d02t07.flac
     4:42.29       49813052 B   ---   --   ---xx   flac  0.5484  wsp2016-02-10d02t08.flac
     9:10.49       97135292 B   ---   --   ---xx   flac  0.5655  wsp2016-02-10d02t09.flac
     9:03.04       95794652 B   ---   --   ---xx   flac  0.5163  wsp2016-02-10d03t01.flac
    12:44.73      134941340 B   ---   --   ---xx   flac  0.5072  wsp2016-02-10d03t02.flac
     4:45.65       50426924 B   ---   --   ---xx   flac  0.4869  wsp2016-02-10d03t03.flac
     8:41.54       92031452 B   ---   --   ---xx   flac  0.4979  wsp2016-02-10d03t04.flac
     7:08.35       75581564 B   ---   --   ---xx   flac  0.4677  wsp2016-02-10d03t05.flac
     7:01.12       74292668 B   ---   --   ---xx   flac  0.5570  wsp2016-02-10d03t06.flac
     4:42.09       49766012 B   ---   --   ---xx   flac  0.5224  wsp2016-02-10d03t07.flac
    10:25.70      110414684 B   ---   --   ---xx   flac  0.5477  wsp2016-02-10d03t08.flac
   187:19.67     1982718328 B                            0.5201  (26 files)








More information about the bittorrent mailing list