[bittorrent] Caryn Womack Smith's Olde Bar Atlanta, Georgia 2/8/2016 (Schoeps CCM4V'S FOB)

Automated Mailer noreply-bt.e at etree.org
Tue Feb 9 17:03:09 UTC 2016


Band:           Other
Torrent Name:   Caryn Womack Smith's Olde Bar Atlanta, Georgia 2/8/2016 (Schoeps CCM4V'S FOB)
Uploaded by:    zmanatl
DB Link:        
Details:        http://bt.etree.org/details.php?id=584946

Contact the seeder at http://db.etree.org/zmanatl

If the link to this show does not work, it was probably removed for
being non-trade-friendly.

Description / text file:
-------------------------
Caryn Womack
Smith's Olde Bar
Atlanta, Georgia
2/8/2016 

Source: Schoeps CCM4V's>Lunatec V2>Benchmark AD2K>
Sound Devices 722 (24/44)
FOB/DFC/KFC/ZFC/AARP 15' From Stage, 7' High
DSP: Sound Devices 722>Sound Forge 10.0>CD Wave>flac(16)
ID3 Tagged In Foobar 2000
Recorded By: Z-Man
Seeded By: Z-Man

Disc I 1st Set

01 Oh, Darlin'
02 Take It
03 Till The Day I Die
04 Band Introductions
05 I'll Still Have You
06 Stuck
07 Under Mason-Dixon's Line
08 Feels Like Rain
09 Barton Hollow
10 Try Us Again 

caryn2016-02-08d01t01.flac:315206c5a65b9d15539ec8677b0a6270
caryn2016-02-08d01t02.flac:1922d15a749043c36b86c8fde1be20f3
caryn2016-02-08d01t03.flac:323e5b89147c4038045a8533a801023c
caryn2016-02-08d01t04.flac:0002b6d39f0aa0c67f5e0dd487c4b284
caryn2016-02-08d01t05.flac:9633a223fd7076d1dd58e3a37197ec5d
caryn2016-02-08d01t06.flac:39397c0516eac41735c9db81bbb4816c
caryn2016-02-08d01t07.flac:7f899ad1a070f37c931c1ac15800272a
caryn2016-02-08d01t08.flac:9818916842ed15e326fde75bc479979e
caryn2016-02-08d01t09.flac:1feb322896280272222e16d832b55fdd
caryn2016-02-08d01t10.flac:4a402fdf3abfb3c2c940c0272686016d

 length     expanded size    cdr  WAVE problems  fmt   ratio  filename
     4:02.51       42808796 B   ---   --   ---xx   flac  0.4570  caryn2016-02-08d01t01.flac
     3:04.62       32603468 B   ---   --   ---xx   flac  0.5174  caryn2016-02-08d01t02.flac
     4:04.38       43131020 B   ---   --   ---xx   flac  0.3975  caryn2016-02-08d01t03.flac
     1:01.00       10760444 B   ---   --   ---xx   flac  0.3816  caryn2016-02-08d01t04.flac
     5:52.10       62116364 B   ---   --   ---xx   flac  0.4359  caryn2016-02-08d01t05.flac
     4:36.04       48695852 B   ---   --   ---xx   flac  0.5293  caryn2016-02-08d01t06.flac
     3:41.30       39055004 B   ---   --   ---xx   flac  0.4088  caryn2016-02-08d01t07.flac
     4:39.12       49243868 B   ---   --   ---xx   flac  0.4416  caryn2016-02-08d01t08.flac
     4:18.38       45600620 B   ---   --   ---xx   flac  0.4441  caryn2016-02-08d01t09.flac
     5:01.51       53216396 B   ---   --   ---xx   flac  0.5038  caryn2016-02-08d01t10.flac
    40:21.71      427231832 B                            0.4571  (10 files)

















More information about the bittorrent mailing list