[bittorrent] John Kadlecik Band Smith's Olde Bar Atlanta, Georgia 2/8/2016 (Schoeps CCM4V'S FOB)

Automated Mailer noreply-bt.e at etree.org
Tue Feb 9 07:26:05 UTC 2016


Band:           Other
Torrent Name:   John Kadlecik Band Smith's Olde Bar Atlanta, Georgia 2/8/2016 (Schoeps CCM4V'S FOB)
Uploaded by:    zmanatl
DB Link:        
Details:        http://bt.etree.org/details.php?id=584926

Contact the seeder at http://db.etree.org/zmanatl

If the link to this show does not work, it was probably removed for
being non-trade-friendly.

Description / text file:
-------------------------
John Kadlecik Band
Smith's Olde Bar
Atlanta, Georgia
2/8/2016 

Source: Schoeps CCM4V's>Lunatec V2>Benchmark AD2K>
Sound Devices 722 (24/44)
FOB/DFC/KFC/ZFC/AARP 15' From Stage, 7' High
DSP: Sound Devices 722>Sound Forge 10.0>CD Wave>flac(16)
ID3 Tagged In Foobar 2000
Recorded By: Z-Man
Seeded By: Z-Man

Disc I 1st Set

01 Tuning
02 I'll Take A Melody
03 Golden Wings
04 That's What Love Will Make You Do
05 It's Alright
06 Box Of Rain
07 Crazy Fingers >
08 It Takes A Lot To Laugh, It Takes A Train To Cry

Disc II 2nd Set

01 The Harder They Come
02 Hard Highway
03 Seen Love
04 Good Shepherd >
05 Fire On The Mountain >
06 Page 43 
07 Ruben And Cherise >
08 Goin' Down The Road Feelin' Bad
Encore:
09 Thanks
10 When I Paint My Masterpiece

John Kadlecik - Guitar And Vocals
Klyph Black - Bass And Vocals
Waynard Scheller - Keyboards And Vocals
Nathan Graham - Drums 

john2016-02-08d01t01.flac:411d2518be0a94d59d5d78f098978240
john2016-02-08d01t02.flac:7479e3e544c84317229977844911eb6a
john2016-02-08d01t03.flac:6f8eefbf0365c4ba37525f67e4d58b78
john2016-02-08d01t04.flac:7f2886fb84b30a94e681b209fccea21d
john2016-02-08d01t05.flac:3aa66fbc426e989cd40b00b0805686fe
john2016-02-08d01t06.flac:93610ed7265aa788f9f9424e32a7c5f7
john2016-02-08d01t07.flac:96a18776da1455e781642ff8dbc0c50a
john2016-02-08d01t08.flac:9d41779622e727c3db1324029f140563
john2016-02-08d02t01.flac:33ec5fdfd2e373218a9368f2a6fa7cc8
john2016-02-08d02t02.flac:f6ca40c6e41232d10608496333da43ee
john2016-02-08d02t03.flac:faaad88e35dfb719243c2d2074c3ce46
john2016-02-08d02t04.flac:2bcb54dab2e6b504d213daafabf96f6f
john2016-02-08d02t05.flac:77e2d202795ba1aaf186e90058283fb6
john2016-02-08d02t06.flac:e2881e6477de27138ceff404d3914c4a
john2016-02-08d02t07.flac:af660d0c21f4d005bb41442a05942936
john2016-02-08d02t08.flac:e1d92d5a19f0051ec723f20b1228ede8
john2016-02-08d02t09.flac:f0601bb8949d165bded92a0a660e505c
john2016-02-08d02t10.flac:c6c0794dfe75d347f4f2638c4de2acaa

 length     expanded size    cdr  WAVE problems  fmt   ratio  filename
     0:55.24        9758492 B   ---   --   ---xx   flac  0.3725  john2016-02-08d01t01.flac
    12:03.09      127558412 B   ---   --   ---xx   flac  0.4764  john2016-02-08d01t02.flac
     5:57.23       63028940 B   ---   --   ---xx   flac  0.4797  john2016-02-08d01t03.flac
     9:53.23      104659340 B   ---   --   ---xx   flac  0.5029  john2016-02-08d01t04.flac
    14:00.48      148288940 B   ---   --   ---xx   flac  0.4812  john2016-02-08d01t05.flac
     6:35.54       69805052 B   ---   --   ---xx   flac  0.4559  john2016-02-08d01t06.flac
     8:52.30       93915404 B   ---   --   ---xx   flac  0.4555  john2016-02-08d01t07.flac
     5:11.45       54966284 B   ---   --   ---xx   flac  0.5505  john2016-02-08d01t08.flac
    12:31.12      132504668 B   ---   --   ---xx   flac  0.5038  john2016-02-08d02t01.flac
     6:10.48       65380940 B   ---   --   ---xx   flac  0.4711  john2016-02-08d02t02.flac
    10:32.60      111625964 B   ---   --   ---xx   flac  0.4618  john2016-02-08d02t03.flac
     9:59.11      105689516 B   ---   --   ---xx   flac  0.4863  john2016-02-08d02t04.flac
    11:34.37      122508668 B   ---   --   ---xx   flac  0.4817  john2016-02-08d02t05.flac
     5:28.02       57863948 B   ---   --   ---xx   flac  0.3730  john2016-02-08d02t06.flac
     7:18.12       77291468 B   ---   --   ---xx   flac  0.5105  john2016-02-08d02t07.flac
     8:27.07       89451308 B   ---   --   ---xx   flac  0.5227  john2016-02-08d02t08.flac
     1:07.47       11929388 B   ---   --   ---xx   flac  0.2869  john2016-02-08d02t09.flac
     6:42.29       70981052 B   ---   --   ---xx   flac  0.4708  john2016-02-08d02t10.flac
   143:20.71     1517207784 B                            0.4796  (18 files)








More information about the bittorrent mailing list