[bittorrent] gd1987-01-28.mtx.tobin.135157.flac16

Automated Mailer noreply-bt.e at etree.org
Mon Feb 8 22:08:58 UTC 2016


Band:           Grateful Dead
Torrent Name:   gd1987-01-28.mtx.tobin.135157.flac16
Uploaded by:    greendude
DB Link:        http://db.etree.org/shn/135157
Details:        http://bt.etree.org/details.php?id=584921

Contact the seeder at http://db.etree.org/greendude

If the link to this show does not work, it was probably removed for
being non-trade-friendly.

Description / text file:
-------------------------
-----THANKS TO KEVTOBIN FOR SHARING-----


Grateful Dead
Civic Center
San Francisco, CA
January 28, 1987

SBD + AUD Matrix 2 Source Mix(52%-SBD/48%-AUD)

Set 1:
d1t01 - Shakedown Street
d1t02 - Get Back
d1t03 - Peggy-O
d1t04 - Walkin' Blues
d1t05 - It Must Have Been The Roses
d1t06 - It's All Over Now
d1t07 - Row Jimmy
d1t08 - My Brother Esau
d1t09 - Bird Song
d1t10 - Jack Straw

Set 2:
d2t01 - When Push Comes To Shove ->
d2t02 - Samson And Delilah
d2t03 - Black Muddy River ->
d2t04 - He's Gone ->
d2t05 - Spoonful ->
d2t06 - Drums ->
d3t01 - Jam ->
d3t02 - Eyes Of The World ->
d3t03 - Black Peter ->
d3t04 - Around And Around ->
d3t05 - Sugar Magnolia

Encore:
d3t06 - U.S. Blues

Audio Information:
Original SBD (shnid=83286)

Recording Info:
SBD -> Cassette Master (Maxell MX90/Sony D5)

Transfer Info:
Cassette Master (Tascam 122mkII) -> Apogee MiniMe (24bit/48k) ->
Samplitude Professional v8.01 -> FLAC/16
(3 Discs Audio / 2 Discs FLAC)

All Transfers and Mastering By Charlie Miller
charliemiller87 at earthlink.net
January 30, 2007

Notes:
-- 2nd Set and Encore can be re-joined seamlessly
-- Thanks to Paul Scotton and Joani Walker for the tapes

Original AUD (shnid=119326)
OTS AUD: 2x Nakamichi CM300 w/CP4 shotguns > Sony TC-D5M > Maxell XLII-S.

Transfer: MAC > Nakamichi DR-2 > Edirol FA-66 > Wavelab 2448 > CD-Wave >
TLH > FLAC 2448 tagged. Taped & transferred by Andrew F. 02/2012
24bit/48kHz file-set was used
---------------------------------------------------------
- Mixed by kevtobin at yahoo.com
- FLAC conversion 06-FEB-2016 - Trader Little Helper
- Tagged 06-FEB-2016 - Tag&Rename
---------------------------------------------------------
Multitrack Mixdown Settings

SET ONE

Stereo Matrix
SBD 0
AUD -1

SET TWO

Stereo Matrix
SBD 0
AUD -1
---------------------------------------------------------

Brokedown House Production

    length     expanded size    cdr  WAVE problems  fmt   ratio  filename
    13:58.54      147950252 B   ---   --   -----    wav  1.0000  gd1987-01-28d1t01.wav
     6:02.67       64014428 B   ---   --   -----    wav  1.0000  gd1987-01-28d1t02.wav
     5:57.36       63059516 B   ---   --   -----    wav  1.0000  gd1987-01-28d1t03.wav
     6:10.14       65300972 B   ---   --   -----    wav  1.0000  gd1987-01-28d1t04.wav
     7:36.44       80541932 B   ---   --   -----    wav  1.0000  gd1987-01-28d1t05.wav
     6:54.74       73203692 B   ---   --   -----    wav  1.0000  gd1987-01-28d1t06.wav
    11:41.34      123736412 B   ---   --   -----    wav  1.0000  gd1987-01-28d1t07.wav
     4:59.68       52903580 B   ---   --   -----    wav  1.0000  gd1987-01-28d1t08.wav
    11:20.69      120114332 B   ---   --   -----    wav  1.0000  gd1987-01-28d1t09.wav
     5:25.03       57337100 B   ---   --   -----    wav  1.0000  gd1987-01-28d1t10.wav
     4:56.17       52254428 B   ---   --   -----    wav  1.0000  gd1987-01-28d2t01.wav
     7:07.60       75463964 B   ---   --   -----    wav  1.0000  gd1987-01-28d2t02.wav
     6:13.59       65936012 B   ---   --   -----    wav  1.0000  gd1987-01-28d2t03.wav
    10:46.22      114006188 B   ---   --   -----    wav  1.0000  gd1987-01-28d2t04.wav
     6:58.29       73803452 B   ---   --   -----    wav  1.0000  gd1987-01-28d2t05.wav
     9:39.23      102189740 B   ---   --   -----    wav  1.0000  gd1987-01-28d2t06.wav
     1:47.10       18898364 B   ---   --   -----    wav  1.0000  gd1987-01-28d3t01.wav
     7:18.71       77430236 B   ---   --   -----    wav  1.0000  gd1987-01-28d3t02.wav
    10:06.53      107023100 B   ---   --   -----    wav  1.0000  gd1987-01-28d3t03.wav
     4:38.03       49046300 B   ---   --   -----    wav  1.0000  gd1987-01-28d3t04.wav
     9:26.73      100014140 B   ---   --   -----    wav  1.0000  gd1987-01-28d3t05.wav
     5:27.63       57831020 B   ---   --   -----    wav  1.0000  gd1987-01-28d3t06.wav
   164:35.46     1742059160 B                            1.0000  (22 files)





More information about the bittorrent mailing list