[bittorrent] The Playa All Stars Panic En La Playa Cinco Hard Rock Hotel Riviera Maya, Mexico 2/3/2016 (Schoeps CCM4V'S FOB)

Automated Mailer noreply-bt.e at etree.org
Mon Feb 8 02:15:55 UTC 2016


Band:           Other
Torrent Name:   The Playa All Stars Panic En La Playa Cinco Hard Rock Hotel Riviera Maya, Mexico 2/3/2016 (Schoeps CCM4V'S FOB)
Uploaded by:    zmanatl
DB Link:        
Details:        http://bt.etree.org/details.php?id=584905

Contact the seeder at http://db.etree.org/zmanatl

If the link to this show does not work, it was probably removed for
being non-trade-friendly.

Description / text file:
-------------------------
La Playa All Stars
Late Night
Panic En La Playa Cinco
Hard Rock Hotel
Riviera Maya, Mexico
2/3/2016 

Source: Schoeps CCM4V's>Lunatec V2>Benchmark AD2K>
Sound Devices 722 (24/44)
FOB/DRFC/KFC/ZFC/AARP 18' From Stage, 7' High
DSP: Sound Devices 722>Sound Forge 10.0>CD Wave>flac(16)
ID3 Tagged In Foobar 2000
Recorded By: Z-Man
Seeded By: Z-Man

This Recording Is Dedicated To My Friends Ed Fairchild And Matt Kinder. RIP Brothers.

Disc I 

01 Introduction By Annabel Lukins
02 Get Back
03 ?
04 Money
05 Yes We Can >
06 Aiko-Aiko >
07 The Dragon >
08 Look Inside

Disc II 

01 Turn On Your Lovelight >
02 There Was A Time 
03 *Rock Steady >
04 Drum Solo >
05 Sugaree
06 Roll With It 
07 Ain't No Use
08 Lucille

* With ? On Saxophone

George Porter Jr. - Bass And Vocals
Ivan Neville - Keyboards And Vocals
Eric Krasno -Guitar And Vocals
Randall Bramblett - Keyboards, Saxophone, And Vocals
Jennifer Hartswick  Trumpet And Vocals
Nikki Glasspie - Drums And Vocals
Colo. Bruce Hampton - Vocals And Shenanigans

playa2016-02-03d01t01.flac:7716576f60e77dea3eb9ae505bad3b9b
playa2016-02-03d01t02.flac:b5720133d82d43f9406542a43ebfc567
playa2016-02-03d01t03.flac:c8ab924cf44df6f4643254115b7f9336
playa2016-02-03d01t04.flac:40489a429ded6f4482f54dc7d1718500
playa2016-02-03d01t05.flac:8440745d9d079e622039b2faefcfcb9c
playa2016-02-03d01t06.flac:3c507e56d3db397a22c3405412704eb3
playa2016-02-03d01t07.flac:1d9eab7debe6143a5457bbaa8516febe
playa2016-02-03d01t08.flac:e037604558391b347693400e325ed40a
playa2016-02-03d02t01.flac:1d5b95a9999771cb8ad01010453a7dd1
playa2016-02-03d02t02.flac:42309c9da679943ab54134b1e852d813
playa2016-02-03d02t03.flac:3c5eb7d2952bf705fbf7490a973175a7
playa2016-02-03d02t04.flac:ab0e35b92904c8214905e1a2eb583aff
playa2016-02-03d02t05.flac:5e20bd99f4faf2f77b5dafacb547b5ba
playa2016-02-03d02t06.flac:aa7d823317330ad3c1c7359056db729a
playa2016-02-03d02t07.flac:d77328f0221332e4ca7ff6739db0faa4
playa2016-02-03d02t08.flac:9ea937f445b5e71a385b63b059674ae6

  length     expanded size    cdr  WAVE problems  fmt   ratio  filename
     1:00.47       10694588 B   ---   --   ---xx   flac  0.3598  playa2016-02-03d01t01.flac
    12:56.20      136933484 B   ---   --   ---xx   flac  0.5172  playa2016-02-03d01t02.flac
    11:56.28      126368300 B   ---   --   ---xx   flac  0.5663  playa2016-02-03d01t03.flac
     9:45.51      103313996 B   ---   --   ---xx   flac  0.5503  playa2016-02-03d01t04.flac
     8:04.18       85419980 B   ---   --   ---xx   flac  0.5800  playa2016-02-03d01t05.flac
     5:49.27       61627148 B   ---   --   ---xx   flac  0.5585  playa2016-02-03d01t06.flac
     5:51.45       62022284 B   ---   --   ---xx   flac  0.5732  playa2016-02-03d01t07.flac
     5:37.23       59500940 B   ---   --   ---xx   flac  0.5852  playa2016-02-03d01t08.flac
     8:18.72       88016588 B   ---   --   ---xx   flac  0.5717  playa2016-02-03d02t01.flac
     6:45.35       71524364 B   ---   --   ---xx   flac  0.5679  playa2016-02-03d02t02.flac
     7:46.66       82357676 B   ---   --   ---xx   flac  0.5735  playa2016-02-03d02t03.flac
     1:17.01       13585196 B   ---   --   ---xx   flac  0.5768  playa2016-02-03d02t04.flac
    10:06.19      106943132 B   ---   --   ---xx   flac  0.5316  playa2016-02-03d02t05.flac
     8:20.63       88348220 B   ---   --   ---xx   flac  0.5793  playa2016-02-03d02t06.flac
    11:15.46      119178236 B   ---   --   ---xx   flac  0.5518  playa2016-02-03d02t07.flac
     6:14.67       66131228 B   ---   --   ---xx   flac  0.5631  playa2016-02-03d02t08.flac
   121:07.28     1281965360 B                            0.5573  (16 files)












 








More information about the bittorrent mailing list