[bittorrent] John Medeski Trio 2016-02-04 Johnny D's Nightclub Somerville, MA Schoeps mk22/cmc6>Fostex FR2LE **16bit**

Automated Mailer noreply-bt.e at etree.org
Sun Feb 7 22:15:28 UTC 2016


Band:           Other
Torrent Name:   John Medeski Trio 2016-02-04 Johnny D's Nightclub Somerville, MA Schoeps mk22/cmc6>Fostex FR2LE **16bit**
Uploaded by:    andyjah
DB Link:        
Details:        http://bt.etree.org/details.php?id=584902

Contact the seeder at http://db.etree.org/andyjah

If the link to this show does not work, it was probably removed for
being non-trade-friendly.

Description / text file:
-------------------------
John Medeski, David Fiuczynski and Calvin Weston
2016-02-04
Johnny D’s Nightclub
Somerville, MA

mics were on stage dfc ORTF

Schoeps mk22>kc5>cmc6>Fostex FR2LE (24bit/48khz) 

WAV>USB>Macbook Pro>Wave Editor(tracking,fades,resample(izotope)/dither(mbit+)to 16 bit/44.1k)>XAct(FLAC 8,ffp,fix sbe)

Recorded by Dave Flaschner

Transferred by Andy Murray

John Medeski - Keys
David Fiuczynski - Guitar
Calvin Weston - Drums

01. intro
02. unknown
03. Sun Song
04. Vashkar
05. Mystic
06. Arcadia
07. unknown
08. Continuum
09. banter
10. Peckstein Sonne
11. encore break
12. Trane

;flac fingerprints generated by xACT 2.37 on 2016-02-07 22:05:23 +0000

medeski2016-02-04.mk22.fr2le.1644.s1t01.flac:3a4b8d120824ca31d735c3f3c34c03ae
medeski2016-02-04.mk22.fr2le.1644.s1t02.flac:2c488b738f665b63e06293d496f4228f
medeski2016-02-04.mk22.fr2le.1644.s1t03.flac:58c627a6b5f45223a8134bea0a7a8488
medeski2016-02-04.mk22.fr2le.1644.s1t04.flac:24300b5f9ef70fd684634cda7051e5aa
medeski2016-02-04.mk22.fr2le.1644.s1t05.flac:e179c6dcbb5e06a849e3cd5e39e1a4a7
medeski2016-02-04.mk22.fr2le.1644.s1t06.flac:c8b0cdf55475516407ac8cf35c404aab
medeski2016-02-04.mk22.fr2le.1644.s1t07.flac:93c0254908eb5c16229d2e6e29da6dd2
medeski2016-02-04.mk22.fr2le.1644.s1t08.flac:0f6da7d36aa60ed0d085bc1f7128a067
medeski2016-02-04.mk22.fr2le.1644.s1t09.flac:d5360f7162e5afd2f1f1d18fda57d370
medeski2016-02-04.mk22.fr2le.1644.s1t10.flac:3ac05f412d417fb3bff5c93c65e5df94
medeski2016-02-04.mk22.fr2le.1644.s1t11.flac:ec161e8d1e64bfb782cd389ee1cf4e78
medeski2016-02-04.mk22.fr2le.1644.s1t12.flac:1febe16cc08e19fbbfcfc418754b9a08

    length     expanded size    cdr  WAVE problems  fmt   ratio  filename
     1:02.72       11106188 B   ---   --   -----    wav  1.0000  medeski2016-02-04.mk22.fr2le.1644.s1t01.wav
     6:39.41       70480076 B   ---   --   -----    wav  1.0000  medeski2016-02-04.mk22.fr2le.1644.s1t02.wav
    12:01.63      127332620 B   ---   --   -----    wav  1.0000  medeski2016-02-04.mk22.fr2le.1644.s1t03.wav
    14:06.00      149234444 B   ---   --   -----    wav  1.0000  medeski2016-02-04.mk22.fr2le.1644.s1t04.wav
     9:20.10       98807564 B   ---   --   -----    wav  1.0000  medeski2016-02-04.mk22.fr2le.1644.s1t05.wav
    16:14.19      171858332 B   ---   --   -----    wav  1.0000  medeski2016-02-04.mk22.fr2le.1644.s1t06.wav
     8:24.56       89037356 B   ---   --   -----    wav  1.0000  medeski2016-02-04.mk22.fr2le.1644.s1t07.wav
    10:16.32      108737708 B   ---   --   -----    wav  1.0000  medeski2016-02-04.mk22.fr2le.1644.s1t08.wav
     1:30.14       15908972 B   ---   --   -----    wav  1.0000  medeski2016-02-04.mk22.fr2le.1644.s1t09.wav
    14:48.68      156803180 B   ---   --   -----    wav  1.0000  medeski2016-02-04.mk22.fr2le.1644.s1t10.wav
     2:06.47       22336988 B   ---   --   -----    wav  1.0000  medeski2016-02-04.mk22.fr2le.1644.s1t11.wav
    10:56.25      115777244 B   ---   --   -----    wav  1.0000  medeski2016-02-04.mk22.fr2le.1644.s1t12.wav
   107:27.72     1137420672 B                            1.0000  (12 files)




More information about the bittorrent mailing list