[bittorrent] Jerry Joseph Solo Acoustic Panic En La Playa Cinco Hard Rock Hotel Riviera Maya, Mexico 2/5/2016 (Schoeps CCM4V'S FOB)

Automated Mailer noreply-bt.e at etree.org
Sun Feb 7 18:53:46 UTC 2016


Band:           Jerry Joseph
Torrent Name:   Jerry Joseph Solo Acoustic Panic En La Playa Cinco Hard Rock Hotel Riviera Maya, Mexico 2/5/2016 (Schoeps CCM4V'S FOB)
Uploaded by:    zmanatl
DB Link:        
Details:        http://bt.etree.org/details.php?id=584896

Contact the seeder at http://db.etree.org/zmanatl

If the link to this show does not work, it was probably removed for
being non-trade-friendly.

Description / text file:
-------------------------
Jerry Joseph Solo Acoustic
Panic En La Playa Cinco
Hard Rock Hotel
Riviera Maya, Mexico
2/5/2016 

Source: Schoeps CCM4V's>Lunatec V2>Benchmark AD2K>
Sound Devices 722 (24/44)
FOB/DRFC/KFC/ZFC/AARP 4' From Stage, 4' High
DSP: Sound Devices 722>Sound Forge 10.0>CD Wave>flac(16)
ID3 Tagged In Foobar 2000
Recorded By: Z-Man
Seeded By: Z-Man

This Recording Is Dedicated To My Friends Ed Fairchild And Matt Kinder. RIP Brothers.

Disc I 

01 War At The End Of The World
02 Jump
03 Think Of These Things
04 The Road Home
05 The Beautiful Dirt
06 Cochise 

Disc II 

01 Jerry Banter
02 10 Killer Fairies
03 Cosmic
04 The Sound Of Sinners >
05 Climb To Safety >
06 ? >
07 Climb To Safety 

jerry2016-02-05d01t01.flac:cbd1265ab3acd4c7a9a4a09ddfd9c46d
jerry2016-02-05d01t02.flac:9427c025bebdb71060f4336e2b892bdd
jerry2016-02-05d01t03.flac:a53fbe55ddf0e6707334ad90b0fff576
jerry2016-02-05d01t04.flac:89eb530bfd6cea7cf6c779bc68c1abb7
jerry2016-02-05d01t05.flac:511fd5d9b66bf63687901d6c10b168bc
jerry2016-02-05d01t06.flac:744002a2b5b9fce31c676a41f1864921
jerry2016-02-05d02t01.flac:8cdcaa52f11b32161a9bdd3fa39f7709
jerry2016-02-05d02t02.flac:fb1230000cd840e8ad02a44dcbe68b89
jerry2016-02-05d02t03.flac:b2a6958d9ad703bc3c40c204ea0e9110
jerry2016-02-05d02t04.flac:494c6a4cfd716a679ac3c9bb2eb8a974
jerry2016-02-05d02t05.flac:75ac66d82101e5ee6c3363ab9fd973a8
jerry2016-02-05d02t06.flac:1c801d0e84a77552805d902258864f47
jerry2016-02-05d02t07.flac:5683029f185717d400ee9a177038d024

 length     expanded size    cdr  WAVE problems  fmt   ratio  filename
     6:54.06       73043756 B   ---   --   ---xx   flac  0.4090  jerry2016-02-05d01t01.flac
    10:03.04      106378652 B   ---   --   ---xx   flac  0.4832  jerry2016-02-05d01t02.flac
     6:45.18       71484380 B   ---   --   ---xx   flac  0.4050  jerry2016-02-05d01t03.flac
     6:27.48       68379740 B   ---   --   ---xx   flac  0.4634  jerry2016-02-05d01t04.flac
     8:52.32       93920108 B   ---   --   ---xx   flac  0.5018  jerry2016-02-05d01t05.flac
     7:00.13       74118620 B   ---   --   ---xx   flac  0.3563  jerry2016-02-05d01t06.flac
     2:31.66       26791676 B   ---   --   ---xx   flac  0.2304  jerry2016-02-05d02t01.flac
    12:08.66      128574476 B   ---   --   ---xx   flac  0.4219  jerry2016-02-05d02t02.flac
     6:31.25       69031244 B   ---   --   ---xx   flac  0.3789  jerry2016-02-05d02t03.flac
     4:11.48       44389340 B   ---   --   ---xx   flac  0.4061  jerry2016-02-05d02t04.flac
     5:05.43       53903180 B   ---   --   ---xx   flac  0.4564  jerry2016-02-05d02t05.flac
     6:30.43       68897180 B   ---   --   ---xx   flac  0.5541  jerry2016-02-05d02t06.flac
     3:29.15       36902924 B   ---   --   ---xx   flac  0.4715  jerry2016-02-05d02t07.flac
    86:31.52      915815276 B                            0.4370  (13 files)














 










More information about the bittorrent mailing list