[bittorrent] John Medeski David Fiuczynski and Calvin Weston 2016-02-04 Johnny D's Nightclub Somerville, MA Schoeps mk22/cmc6>Sonosax SX-R4 **16bit**

Automated Mailer noreply-bt.e at etree.org
Sun Feb 7 14:45:13 UTC 2016


Band:           Other
Torrent Name:   John Medeski David Fiuczynski and Calvin Weston 2016-02-04 Johnny D's Nightclub Somerville, MA Schoeps mk22/cmc6>Sonosax SX-R4 **16bit**
Uploaded by:    andyjah
DB Link:        
Details:        http://bt.etree.org/details.php?id=584889

Contact the seeder at http://db.etree.org/andyjah

If the link to this show does not work, it was probably removed for
being non-trade-friendly.

Description / text file:
-------------------------
John Medeski, David Fiuczynski and Calvin Weston
2016-02-04
Johnny D’s Nightclub
Somerville, MA

mics were on stage dfc wide ORTF

Schoeps mk22>kc5>cmc6>Sonosax SX-R4 (24bit/96khz) 

WAV>USB>Macbook Pro>Wave Editor(tracking,fades,resample(izotope)/dither(mbit+)to 16 bit/44.1k)>XAct(FLAC 8,ffp,fix sbe)

Recorded and transferred by Andy Murray

John Medeski - Keys
David Fiuczynski - Guitar
Calvin Weston - Drums

01. intro
02. unknown
03. Sun Song
04. Vashkar
05. Mystic
06. Arcadia
07. unknown
08. Continuum
09. banter
10. Peckstein Sonne
11. encore break
12. Trane

;flac fingerprints generated by xACT 2.37 on 2016-02-07 01:59:51 +0000

medeski2016-02-04.mk22.sxr4.1644.s1t01.flac:c2f5d4202f6b9015fef7afd93df9e272
medeski2016-02-04.mk22.sxr4.1644.s1t02.flac:aa2f7165639efc0783bbb78e76f9a362
medeski2016-02-04.mk22.sxr4.1644.s1t03.flac:3be4ea9b55a0ac126850d7891e68e097
medeski2016-02-04.mk22.sxr4.1644.s1t04.flac:129215ca047c2775d2a2cbf5cf9189c1
medeski2016-02-04.mk22.sxr4.1644.s1t05.flac:51ef519310d7c469a3de9b2b295e2fbd
medeski2016-02-04.mk22.sxr4.1644.s1t06.flac:67b6534541e16c98c7736a0cdf8decd1
medeski2016-02-04.mk22.sxr4.1644.s1t07.flac:80ed4b4a00a461e777f831ebf73acab0
medeski2016-02-04.mk22.sxr4.1644.s1t08.flac:147295b19d026e2ed24450d79907f802
medeski2016-02-04.mk22.sxr4.1644.s1t09.flac:3ba16ab7c24be5bfa32a167635dd18f3
medeski2016-02-04.mk22.sxr4.1644.s1t10.flac:69898f2df6303f08daa5b93f01dac2e8
medeski2016-02-04.mk22.sxr4.1644.s1t11.flac:acec77482693533acea7c107c208ee6f
medeski2016-02-04.mk22.sxr4.1644.s1t12.flac:411fa3126c77d9df52acf414af16a07c

    length     expanded size    cdr  WAVE problems  fmt   ratio  filename
     0:56.05        9890204 B   ---   --   -----    wav  1.0000  medeski2016-02-04.mk22.sxr4.1644.s1t01.wav
     6:46.41       71714876 B   ---   --   -----    wav  1.0000  medeski2016-02-04.mk22.sxr4.1644.s1t02.wav
    12:01.68      127344380 B   ---   --   -----    wav  1.0000  medeski2016-02-04.mk22.sxr4.1644.s1t03.wav
    14:06.60      149375564 B   ---   --   -----    wav  1.0000  medeski2016-02-04.mk22.sxr4.1644.s1t04.wav
     9:14.64       97876172 B   ---   --   -----    wav  1.0000  medeski2016-02-04.mk22.sxr4.1644.s1t05.wav
    16:19.00      172695644 B   ---   --   -----    wav  1.0000  medeski2016-02-04.mk22.sxr4.1644.s1t06.wav
     8:24.38       88995020 B   ---   --   -----    wav  1.0000  medeski2016-02-04.mk22.sxr4.1644.s1t07.wav
    10:20.24      109424492 B   ---   --   -----    wav  1.0000  medeski2016-02-04.mk22.sxr4.1644.s1t08.wav
     1:27.33       15424460 B   ---   --   -----    wav  1.0000  medeski2016-02-04.mk22.sxr4.1644.s1t09.wav
    14:43.57      155895308 B   ---   --   -----    wav  1.0000  medeski2016-02-04.mk22.sxr4.1644.s1t10.wav
     2:10.69       23094332 B   ---   --   -----    wav  1.0000  medeski2016-02-04.mk22.sxr4.1644.s1t11.wav
    10:58.43      116172380 B   ---   --   -----    wav  1.0000  medeski2016-02-04.mk22.sxr4.1644.s1t12.wav
   107:30.52     1137902832 B                            1.0000  (12 files)





More information about the bittorrent mailing list