[bittorrent] Todd Snider Solo Acoustic Panic En La Playa Cinco Hard Rock Hotel Riviera Maya, Mexico 2/3/2016 (Schoeps CCM4V'S FOB)

Automated Mailer noreply-bt.e at etree.org
Sun Feb 7 04:05:08 UTC 2016


Band:           Todd Snider
Torrent Name:   Todd Snider Solo Acoustic Panic En La Playa Cinco Hard Rock Hotel Riviera Maya, Mexico 2/3/2016 (Schoeps CCM4V'S FOB)
Uploaded by:    zmanatl
DB Link:        
Details:        http://bt.etree.org/details.php?id=584879

Contact the seeder at http://db.etree.org/zmanatl

If the link to this show does not work, it was probably removed for
being non-trade-friendly.

Description / text file:
-------------------------
Todd Snider Solo Acoustic
Panic En La Playa Cinco
Hard Rock Hotel
Riviera Maya, Mexico
2/4/2016 

Source: Schoeps CCM4V's>Lunatec V2>Benchmark AD2K>
Sound Devices 722 (24/44)
FOB/DRFC/KFC/ZFC/AARP 4' From Stage, 4' High
DSP: Sound Devices 722>Sound Forge 10.0>CD Wave>flac(16)
ID3 Tagged In Foobar 2000
Recorded By: Z-Man
Seeded By: Z-Man

This Recording Is Dedicated To My Friends Ed Fairchild And Matt Kinder. RIP Brothers.

Disc I 

01 Guaranteed >
02 Ain't No God In Mexico 
03 Can't Explain 
04 Down To The Well
05 Todd Banter
06 Welfare Music >
07 Dope Is Dope
08 *Franklin's Tower
09 Ascending Into Madness 
10 Mission Accomplished
11 Stomp And Holler
12 Relax Your Mind
13 Todd Banter
14 Conservative Christian Male
15 Is This Thing Workin'
16 Coconut >
17 Is This Thing Workin'
18 Play A Train Song
19 Straight To Hell
20 Sideshow Blues
21 Work Song >
22 This Land Is Your Land >
23 Work Song
24 PA:Work Song
25 Outro

* First Time Played

todd2016-02-04d01t01.flac:4ef8bdd8d3c8aa0c01b8215a535f5911
todd2016-02-04d01t02.flac:51d0925717bb54d00a1a09d011540a47
todd2016-02-04d01t03.flac:76dd7d45abb36b3e44e85177e90442ef
todd2016-02-04d01t04.flac:4721e6c17f01f9cba4867b94002f4d90
todd2016-02-04d01t05.flac:e3fcbfd0f146eefe2b8b8f3509727480
todd2016-02-04d01t06.flac:4a88621283b801c40259881931dcc2e5
todd2016-02-04d01t07.flac:eedf0b728d57a5e1f4c7edd8e7b57259
todd2016-02-04d01t08.flac:35945ff1af022a1fbdf9eb8551a761fb
todd2016-02-04d01t09.flac:43850038fdc24d95580e1e6fd1efd135
todd2016-02-04d01t10.flac:7cd0fb47076d27471c44b350b22a601f
todd2016-02-04d01t11.flac:b1b40e34c3cde5f9000092943fc40780
todd2016-02-04d01t12.flac:d92e96670ab0849ed42bb03362789dbe
todd2016-02-04d01t13.flac:baa3d80243a0f08cdee39ef8aa118659
todd2016-02-04d01t14.flac:47ef8c53b8e8d0d4f41dbbdec89b838a
todd2016-02-04d01t15.flac:c5ce31c382ded0216ede656e9c1179cc
todd2016-02-04d01t16.flac:c7232c511035af3a679e7862a4c4e7b0
todd2016-02-04d01t17.flac:c21031a409ed802da90a1045557adc4c
todd2016-02-04d01t18.flac:660740c5c4b3e35c08744a940c71292c
todd2016-02-04d01t19.flac:9ca1f47acb7c1be34cbe13daf45aa7c5
todd2016-02-04d01t20.flac:22c8024f7ede11c2d12e1debddbc77d5
todd2016-02-04d01t21.flac:576cc9c1096c65e7a5f97f71abeb3144
todd2016-02-04d01t22.flac:8c1c937152c6334ae42bc6d29403fdd9
todd2016-02-04d01t23.flac:dbff84b12748486231409d9b9364987d
todd2016-02-04d01t24.flac:826d6594971be620d506c62de7e8eae0
todd2016-02-04d01t25.flac:911fc151a80ef435ca813cd270848bf6

length     expanded size    cdr  WAVE problems  fmt   ratio  filename
     6:16.73       66498140 B   ---   --   ---xx   flac  0.3753  todd2016-02-04d01t01.flac
     3:45.60       39831164 B   ---   --   ---xx   flac  0.4236  todd2016-02-04d01t02.flac
     3:17.29       34819052 B   ---   --   ---xx   flac  0.3780  todd2016-02-04d01t03.flac
     4:56.14       52247372 B   ---   --   ---xx   flac  0.4097  todd2016-02-04d01t04.flac
     1:26.57       15304508 B   ---   --   ---xx   flac  0.3617  todd2016-02-04d01t05.flac
     3:11.46       33800636 B   ---   --   ---xx   flac  0.4489  todd2016-02-04d01t06.flac
     2:39.42       28146428 B   ---   --   ---xx   flac  0.4394  todd2016-02-04d01t07.flac
     4:28.43       47376380 B   ---   --   ---xx   flac  0.4365  todd2016-02-04d01t08.flac
     4:58.61       52710716 B   ---   --   ---xx   flac  0.3677  todd2016-02-04d01t09.flac
     3:59.02       42164348 B   ---   --   ---xx   flac  0.4998  todd2016-02-04d01t10.flac
     5:26.17       57546428 B   ---   --   ---xx   flac  0.4526  todd2016-02-04d01t11.flac
     3:08.20       33210284 B   ---   --   ---xx   flac  0.4152  todd2016-02-04d01t12.flac
     0:42.03        7415900 B   ---   --   ---xx   flac  0.4185  todd2016-02-04d01t13.flac
     2:59.61       31719116 B   ---   --   ---xx   flac  0.4506  todd2016-02-04d01t14.flac
     4:19.10       45711164 B   ---   --   ---xx   flac  0.4268  todd2016-02-04d01t15.flac
     0:28.17        4979228 B   ---   --   ---xx   flac  0.4964  todd2016-02-04d01t16.flac
     1:12.67       12858428 B   ---   --   ---xx   flac  0.4866  todd2016-02-04d01t17.flac
     4:35.46       48618236 B   ---   --   ---xx   flac  0.4139  todd2016-02-04d01t18.flac
     4:55.33       52115660 B   ---   --   ---xx   flac  0.4157  todd2016-02-04d01t19.flac
     4:38.08       49058060 B   ---   --   ---xx   flac  0.4990  todd2016-02-04d01t20.flac
     0:59.48       10520540 B   ---   --   ---xx   flac  0.4017  todd2016-02-04d01t21.flac
     2:28.10       26130764 B   ---   --   ---xx   flac  0.4152  todd2016-02-04d01t22.flac
     0:46.45        8220284 B   ---   --   ---xx   flac  0.4862  todd2016-02-04d01t23.flac
     1:31.31       16125356 B   ---   --   ---xx   flac  0.5085  todd2016-02-04d01t24.flac
     0:47.03        8297900 B   ---   --   ---xx   flac  0.4117  todd2016-02-04d01t25.flac
    77:59.21      825426092 B                            0.4277  (25 files)








 














More information about the bittorrent mailing list