[bittorrent] Widespread Panic Panic En La Playa Hard Rock Hotel Riviera Maya, Mexico 2/5/2016 (Schoeps CCM4V'S FOB)

Automated Mailer noreply-bt.e at etree.org
Sat Feb 6 11:03:17 UTC 2016


Band:           Widespread Panic
Torrent Name:   Widespread Panic Panic En La Playa Hard Rock Hotel Riviera Maya, Mexico 2/5/2016 (Schoeps CCM4V'S FOB)
Uploaded by:    zmanatl
DB Link:        
Details:        http://bt.etree.org/details.php?id=584854

Contact the seeder at http://db.etree.org/zmanatl

If the link to this show does not work, it was probably removed for
being non-trade-friendly.

Description / text file:
-------------------------
Widespread Panic
Panic En La Playa Cinco
Hard Rock Hotel
Riviera Maya, Mexico
2/5/2016 

Source: Schoeps CCM4V's>Lunatec V2>Benchmark AD2K>
Sound Devices 722 (24/44)
FOB/DFC/KFC/ZFC/AARP 42' From Stage, 6' High
DSP: Sound Devices 722>Sound Forge 10.0>CD Wave>flac(16)
ID3 Tagged In Foobar 2000
Recorded By: Z-Man
Seeded By: Z-Man

This Recording Is Dedicated To My Friends Ed Fairchild And Matt Kinder. RIP Brothers.

Disc I 1st Set

01 A Of D >
02 Better Off
03 Diner >
04 Pilgrims 
05 Steven's Cat
06 Jack
07 Bowlegged Woman 
08 Contentment Blues > 
09 Love Tractor

Disc II 2nd Set

01 Machine >
02 Barstools Built For Dreamers
03 Quarter Tank Of Gasoline >
04 Tie Your Shoes >
05 Red Beans Cookin' 
06 Junior

Disc III 2nd Set Con't

01 Hatfield >
02 Drums And Bass >
03 Drum Solo >
04 Jam >
05 Cease-Fire >
06 Rock >
07 Ain't Life Grand
Encore:
08 JB Banter
09 May Your Glass Be Full >
10 Angels Don't Sing The Blues >
11 Chilly Water >
12 Action Man >
13 Chilly Water

wsp2016-02-05d01t01.flac:7a986aa079bf7dafd25f866d75c4d747
wsp2016-02-05d01t02.flac:b783acd3e1e096ec937b0c2080d816f3
wsp2016-02-05d01t03.flac:1fad966009080428a65122af240050f0
wsp2016-02-05d01t04.flac:3aa2b597b40eb0a883608238ba9b492d
wsp2016-02-05d01t05.flac:99667c90919ba4c125adaef72322c214
wsp2016-02-05d01t06.flac:ca13a8c26cbfa3ad360baa38a03b0133
wsp2016-02-05d01t07.flac:49d2b0992898381d20fcf9ac5d519741
wsp2016-02-05d01t08.flac:acdae495d794bfb015d17da004d2f067
wsp2016-02-05d01t09.flac:7d8624d5f5324b89998d98faef5584cb
wsp2016-02-05d02t01.flac:2d1d8096e69fe7bb1c2f9bc2e774ef75
wsp2016-02-05d02t02.flac:8cdea55a86cc2fcb287c3aa183a9eeb7
wsp2016-02-05d02t03.flac:b7e9d0e10c13d304b92e0e8da2b4fe68
wsp2016-02-05d02t04.flac:087913b0e5fe47692b85b1e6d45e7c8f
wsp2016-02-05d02t05.flac:4442db751cf2e64dba78d277e3e24888
wsp2016-02-05d02t06.flac:961c7e4b80fd3e85eb3cd71db7d9efcb
wsp2016-02-05d03t01.flac:c8d41c595acc7c200dc9d05a3e4e5d4c
wsp2016-02-05d03t02.flac:f5bca2d6d550404ddf6a9ad8df3b42a2
wsp2016-02-05d03t03.flac:2322e626879173e9c14ad2b70a92198c
wsp2016-02-05d03t04.flac:46d4ee29da1ea299ce730835d1ea70b3
wsp2016-02-05d03t05.flac:d60151ce2765f77ab3b98fb275f8576f
wsp2016-02-05d03t06.flac:6434f9f59f0fa800d7b056f17819cc9d
wsp2016-02-05d03t07.flac:7963f94d9e977c2a3d109b0fbe464118
wsp2016-02-05d03t08.flac:c9314ac84056d83d783e6ec84846054e
wsp2016-02-05d03t09.flac:34b063afabf2bf78a5d037e80ae47500
wsp2016-02-05d03t10.flac:7d5275c09b5477230bb3816f5788d28c
wsp2016-02-05d03t11.flac:8ccc8ced4ab9bcb65cd01bb223b38e61
wsp2016-02-05d03t12.flac:34d0f99706e91d33da72e44d57c4bdda
wsp2016-02-05d03t13.flac:18ac087884af20b071913f3030ca73d7

 length     expanded size    cdr  WAVE problems  fmt   ratio  filename
     3:16.26       34635596 B   ---   --   ---xx   flac  0.4283  wsp2016-02-05d01t01.flac
     5:19.02       56276348 B   ---   --   ---xx   flac  0.4447  wsp2016-02-05d01t02.flac
    17:34.28      185991500 B   ---   --   ---xx   flac  0.4158  wsp2016-02-05d01t03.flac
     8:51.56       93800156 B   ---   --   ---xx   flac  0.3892  wsp2016-02-05d01t04.flac
     5:01.16       53134076 B   ---   --   ---xx   flac  0.4279  wsp2016-02-05d01t05.flac
     7:01.01       74266796 B   ---   --   ---xx   flac  0.4036  wsp2016-02-05d01t06.flac
     9:18.68       98591180 B   ---   --   ---xx   flac  0.4412  wsp2016-02-05d01t07.flac
     4:46.48       50563340 B   ---   --   ---xx   flac  0.4358  wsp2016-02-05d01t08.flac
     6:36.65       70007324 B   ---   --   ---xx   flac  0.4646  wsp2016-02-05d01t09.flac
     3:18.42       35026028 B   ---   --   ---xx   flac  0.4218  wsp2016-02-05d02t01.flac
    11:03.65      117106124 B   ---   --   ---xx   flac  0.4141  wsp2016-02-05d02t02.flac
     6:15.69       66312332 B   ---   --   ---xx   flac  0.3837  wsp2016-02-05d02t03.flac
    13:28.18      142573580 B   ---   --   ---xx   flac  0.4178  wsp2016-02-05d02t04.flac
     4:48.41       50899676 B   ---   --   ---xx   flac  0.4226  wsp2016-02-05d02t05.flac
     6:27.65       68419724 B   ---   --   ---xx   flac  0.4553  wsp2016-02-05d02t06.flac
    12:42.14      134449772 B   ---   --   ---xx   flac  0.3905  wsp2016-02-05d03t01.flac
     3:54.33       41355260 B   ---   --   ---xx   flac  0.3653  wsp2016-02-05d03t02.flac
     6:23.23       67615340 B   ---   --   ---xx   flac  0.3912  wsp2016-02-05d03t03.flac
     2:32.14       26845772 B   ---   --   ---xx   flac  0.4151  wsp2016-02-05d03t04.flac
     7:37.00       80614844 B   ---   --   ---xx   flac  0.4392  wsp2016-02-05d03t05.flac
     7:54.33       83691260 B   ---   --   ---xx   flac  0.4130  wsp2016-02-05d03t06.flac
     4:58.62       52713068 B   ---   --   ---xx   flac  0.4243  wsp2016-02-05d03t07.flac
     0:44.56        7893356 B   ---   --   ---xx   flac  0.3278  wsp2016-02-05d03t08.flac
     5:16.61       55885916 B   ---   --   ---xx   flac  0.3265  wsp2016-02-05d03t09.flac
     6:23.69       67723532 B   ---   --   ---xx   flac  0.4136  wsp2016-02-05d03t10.flac
     4:08.63       43895420 B   ---   --   ---xx   flac  0.4666  wsp2016-02-05d03t11.flac
     4:16.21       45207836 B   ---   --   ---xx   flac  0.4844  wsp2016-02-05d03t12.flac
     5:08.07       54347708 B   ---   --   ---xx   flac  0.4610  wsp2016-02-05d03t13.flac
   185:10.16     1959842864 B                            0.4180  (28 files)





More information about the bittorrent mailing list