[bittorrent] The New Mastersounds Panic En La Playa Cinco Hard Rock Hotel Riviera Maya, Mexico 2/4/2016 (Schoeps CCM4V'S FOB)

Automated Mailer noreply-bt.e at etree.org
Fri Feb 5 19:45:05 UTC 2016


Band:           Other
Torrent Name:   The New Mastersounds Panic En La Playa Cinco Hard Rock Hotel Riviera Maya, Mexico 2/4/2016 (Schoeps CCM4V'S FOB)
Uploaded by:    zmanatl
DB Link:        
Details:        http://bt.etree.org/details.php?id=584841

Contact the seeder at http://db.etree.org/zmanatl

If the link to this show does not work, it was probably removed for
being non-trade-friendly.

Description / text file:
-------------------------
The New Mastersounds
Late Night
Panic En La Playa Cinco
Hard Rock Hotel
Riviera Maya, Mexico
2/4/2016 

Source: Schoeps CCM4V's>Lunatec V2>Benchmark AD2K>
Sound Devices 722 (24/44)
FOB/DRFC/KFC/ZFC/AARP 18' From Stage, 7' High
DSP: Sound Devices 722>Sound Forge 10.0>CD Wave>flac(16)
ID3 Tagged In Foobar 2000
Recorded By: Z-Man
Seeded By: Z-Man

This Recording Is Dedicated To My Friends Ed Fairchild And Matt Kinder. RIP Brothers.

Disc I 

01 Greeting/Tuning
02 Way Out West
03 MFP
04 Cigar Time
05 Upstairs
06 In The Middle
07 Vandy
08 Sitting On My Knees
09 Let's Do Another
10 High N Wide 

Disc II 

01 ?
02 ?
03 ?
04 ?
05 ?
06 ?
07 ?

new2016-02-04d01t01.flac:f2b94d53ed195f0ce135a0f93e4b0cee
new2016-02-04d01t02.flac:02ab1b7da5046681f5a7f3c9eefbd1b0
new2016-02-04d01t03.flac:a935066a6d35e6833d77f3939217b947
new2016-02-04d01t04.flac:d8ff9a85c4103f76b02173776af95da5
new2016-02-04d01t05.flac:9fde5bda3a1f4f6dc73a1d5764ef7f16
new2016-02-04d01t06.flac:7f5a41e7a990c4397ca8950c5a7e9114
new2016-02-04d01t07.flac:2c3ca7c169874d04b0413a68b10cf2ca
new2016-02-04d01t08.flac:8f5129593f620ea33df3613b5cd5786a
new2016-02-04d01t09.flac:33d66ef9c74809df9106f49cf49a475e
new2016-02-04d01t10.flac:947c885012aca78efbc50b694c808161
new2016-02-04d02t01.flac:0b3c2a9f04ae8916de71aaee04f8266c
new2016-02-04d02t02.flac:a1cce3eafa867a57946fd9289dbb2191
new2016-02-04d02t03.flac:de39254d2788b47ae8352216e5652a80
new2016-02-04d02t04.flac:2423c300940f00ac55d82ed77c00f5c8
new2016-02-04d02t05.flac:aa75dc7b8de972ea7fc374a2fda2476e
new2016-02-04d02t06.flac:88920aeadac407c0da7a642333caa580
new2016-02-04d02t07.flac:9ef8e7e3573bc0817c212dd5b298fdce

length     expanded size    cdr  WAVE problems  fmt   ratio  filename
     3:26.26       36399596 B   ---   --   ---xx   flac  0.3481  new2016-02-04d01t01.flac
     4:08.39       43838972 B   ---   --   ---xx   flac  0.4991  new2016-02-04d01t02.flac
     2:29.10       26307164 B   ---   --   ---xx   flac  0.5158  new2016-02-04d01t03.flac
     7:53.68       83597180 B   ---   --   ---xx   flac  0.4576  new2016-02-04d01t04.flac
     7:02.27       74504348 B   ---   --   ---xx   flac  0.5662  new2016-02-04d01t05.flac
     8:39.60       91692764 B   ---   --   ---xx   flac  0.4981  new2016-02-04d01t06.flac
     6:27.09       68288012 B   ---   --   ---xx   flac  0.4967  new2016-02-04d01t07.flac
     3:43.00       39337244 B   ---   --   ---xx   flac  0.4596  new2016-02-04d01t08.flac
     7:26.10       78697964 B   ---   --   ---xx   flac  0.4903  new2016-02-04d01t09.flac
     4:23.04       46402652 B   ---   --   ---xx   flac  0.5567  new2016-02-04d01t10.flac
     2:50.13       30018620 B   ---   --   ---xx   flac  0.4971  new2016-02-04d02t01.flac
    12:00.13      127038620 B   ---   --   ---xx   flac  0.4762  new2016-02-04d02t02.flac
     5:03.50       53566844 B   ---   --   ---xx   flac  0.5310  new2016-02-04d02t03.flac
     5:15.64       55716572 B   ---   --   ---xx   flac  0.4631  new2016-02-04d02t04.flac
    12:02.72      127530188 B   ---   --   ---xx   flac  0.4892  new2016-02-04d02t05.flac
    11:28.23      121417340 B   ---   --   ---xx   flac  0.5030  new2016-02-04d02t06.flac
     4:42.42       49843628 B   ---   --   ---xx   flac  0.4771  new2016-02-04d02t07.flac
   109:03.05     1154197708 B                            0.4917  (17 files)

 








 




More information about the bittorrent mailing list